<?xml version="1.0" standalone="no"?>
<!DOCTYPE svg PUBLIC "-//W3C//DTD SVG 1.1//EN" "http://www.w3.org/Graphics/SVG/1.1/DTD/svg11.dtd" >
<svg xmlns="http://www.w3.org/2000/svg">
<metadata>Generated by IcoMoon</metadata>
<defs>
<font id="icomoon" horiz-adv-x="1024">
<font-face units-per-em="1024" ascent="960" descent="-64" />
<missing-glyph horiz-adv-x="1024" />
<glyph unicode="&#x20;" horiz-adv-x="512" d="" />
<glyph unicode="&#xe900;" glyph-name="cart" d="M96 764.8c0-12.8 3.2-22.4 12.8-28.8 9.6-9.6 19.2-12.8 28.8-12.8h102.4l51.2-358.4c3.2-28.8 12.8-51.2 28.8-67.2s38.4-25.6 67.2-25.6h412.8c9.6 0 19.2 3.2 25.6 9.6s12.8 16 12.8 28.8c0 12.8-3.2 19.2-12.8 25.6-6.4 6.4-16 9.6-25.6 9.6h-403.2c-6.4 0-12.8 3.2-16 6.4s-6.4 9.6-6.4 16l-6.4 35.2h435.2c28.8 0 51.2 9.6 67.2 25.6s25.6 38.4 28.8 67.2l25.6 166.4c0 3.2 0 6.4 0 9.6s0 6.4 0 9.6c0 12.8-3.2 22.4-12.8 28.8-6.4 6.4-19.2 12.8-35.2 12.8h-553.6l-6.4 32c-3.2 16-9.6 32-19.2 38.4-3.2 9.6-19.2 12.8-41.6 12.8h-118.4c-9.6 0-19.2-3.2-28.8-12.8-9.6-6.4-12.8-16-12.8-28.8zM352 156.8c0-19.2 6.4-35.2 19.2-48s28.8-19.2 48-19.2c19.2 0 35.2 6.4 48 19.2s19.2 28.8 19.2 48c0 19.2-6.4 35.2-19.2 48s-28.8 19.2-48 19.2c-19.2 0-35.2-6.4-48-19.2-12.8-16-19.2-32-19.2-48zM675.2 156.8c0-19.2 6.4-35.2 19.2-48s28.8-19.2 48-19.2c19.2 0 35.2 6.4 48 19.2s19.2 28.8 19.2 48c0 19.2-6.4 35.2-19.2 48s-28.8 19.2-48 19.2c-19.2 0-35.2-6.4-48-19.2-12.8-16-19.2-32-19.2-48z" />
<glyph unicode="&#xe901;" glyph-name="chef-hat" d="M745.6 755.2c-22.4 0-41.6-3.2-64-12.8-16 32-41.6 57.6-70.4 73.6s-64 25.6-99.2 25.6c-35.2 0-70.4-9.6-99.2-25.6-32-16-54.4-41.6-73.6-70.4-19.2 9.6-41.6 12.8-64 12.8-44.8 0-86.4-16-118.4-48s-48-73.6-48-118.4c0-32 9.6-60.8 25.6-86.4s38.4-48 64-60.8l48-179.2c-3.2-3.2-3.2-3.2-6.4-6.4l-6.4-6.4c-6.4-6.4-9.6-12.8-16-19.2 0 0 0-3.2-3.2-3.2 0-3.2-3.2-3.2-3.2-6.4s0-3.2-3.2-3.2l-3.2-6.4c0-3.2 0-3.2-3.2-6.4 0-3.2 0-3.2-3.2-6.4 0-3.2 0-6.4 0-6.4v-6.4c0-3.2 0-9.6 0-12.8 0-32 12.8-60.8 35.2-83.2s51.2-35.2 83.2-35.2h390.4c32 0 60.8 12.8 83.2 35.2s35.2 51.2 35.2 83.2c0 3.2 0 9.6 0 12.8s0 3.2 0 6.4 0 6.4 0 6.4 0 3.2 0 6.4l-6.4 12.8-3.2 3.2c0 3.2-3.2 3.2-3.2 6.4l-3.2 3.2c-3.2 6.4-9.6 12.8-16 19.2l-12.8 12.8 48 179.2c25.6 12.8 51.2 35.2 64 60.8 16 25.6 25.6 54.4 22.4 86.4 0 22.4-3.2 44.8-12.8 64s-22.4 38.4-38.4 54.4c-12.8 12.8-32 25.6-51.2 35.2-22.4 6.4-44.8 12.8-67.2 9.6zM704 121.6h-387.2c-12.8 0-25.6 6.4-35.2 12.8-9.6 9.6-12.8 22.4-12.8 35.2 0 3.2 0 9.6 3.2 12.8 0 0 0 3.2 0 3.2 0 3.2 3.2 6.4 6.4 12.8 3.2 3.2 6.4 6.4 9.6 9.6s6.4 6.4 12.8 6.4c6.4 3.2 12.8 3.2 16 3.2h390.4c6.4 0 12.8 0 16-3.2s9.6-3.2 12.8-6.4v0c3.2-3.2 6.4-6.4 9.6-9.6s3.2-6.4 6.4-12.8c0 0 0-3.2 0-3.2 0-3.2 3.2-9.6 3.2-12.8 0-12.8-3.2-22.4-12.8-32-12.8-9.6-25.6-16-38.4-16zM784 499.2c-6.4-3.2-9.6-6.4-12.8-9.6s-6.4-9.6-6.4-12.8l-54.4-188.8h-73.6l32 150.4c3.2 9.6 0 19.2-3.2 25.6-6.4 6.4-12.8 12.8-22.4 16s-19.2 0-25.6-3.2c-6.4-6.4-12.8-12.8-16-22.4l-35.2-166.4h-22.4v160c0 9.6-3.2 19.2-9.6 25.6-6.4 3.2-12.8 6.4-22.4 6.4s-19.2-3.2-25.6-9.6c-6.4-6.4-9.6-16-9.6-25.6v-160h-19.2l-35.2 166.4c0 3.2-3.2 9.6-6.4 12.8s-6.4 6.4-9.6 9.6c-3.2 3.2-6.4 3.2-12.8 6.4-3.2 0-9.6 0-12.8 0-9.6-3.2-16-6.4-22.4-16-6.4-6.4-6.4-16-6.4-25.6l32-150.4h-73.6l-51.2 188.8c0 6.4-3.2 9.6-6.4 12.8s-6.4 6.4-12.8 9.6c-19.2 6.4-35.2 19.2-44.8 35.2s-16 35.2-16 54.4c0 25.6 9.6 51.2 28.8 70.4 16 19.2 41.6 28.8 67.2 28.8 19.2 0 41.6-6.4 57.6-19.2 3.2-3.2 9.6-6.4 16-6.4s9.6 0 16 0c6.4 0 9.6 3.2 12.8 6.4 3.2 6.4 6.4 9.6 6.4 16 9.6 25.6 25.6 48 48 64s48 25.6 76.8 25.6c28.8 0 54.4-9.6 76.8-25.6s38.4-38.4 51.2-64c3.2-6.4 6.4-9.6 9.6-12.8s9.6-6.4 12.8-6.4c6.4 0 9.6-3.2 16 0 6.4 0 9.6 3.2 16 6.4 16 12.8 35.2 19.2 57.6 19.2 25.6 0 51.2-9.6 70.4-28.8s28.8-44.8 28.8-70.4c0-19.2-6.4-38.4-16-54.4s-32-32-48-38.4z" />
<glyph unicode="&#xe902;" glyph-name="history" d="M928 617.6c-44.8 96-128 169.6-227.2 204.8s-208 32-304-12.8c-73.6-35.2-134.4-89.6-176-160s-60.8-150.4-54.4-230.4l-32 32c-3.2 3.2-6.4 6.4-9.6 6.4-3.2 3.2-6.4 3.2-12.8 3.2-3.2 0-9.6 0-12.8-3.2-3.2 0-6.4-3.2-9.6-6.4l-22.4-22.4c-6.4-6.4-9.6-12.8-9.6-22.4s3.2-16 9.6-22.4l128-137.6c3.2-3.2 6.4-6.4 9.6-6.4 3.2-3.2 9.6-3.2 12.8-3.2s9.6 0 12.8 3.2c3.2 3.2 6.4 3.2 9.6 6.4l128 137.6c6.4 6.4 9.6 12.8 9.6 22.4s-3.2 16-9.6 22.4l-22.4 22.4c-6.4 6.4-12.8 9.6-22.4 9.6s-16-3.2-22.4-9.6l-32-35.2c-6.4 64 6.4 124.8 38.4 182.4 32 54.4 80 99.2 137.6 124.8 73.6 35.2 156.8 38.4 233.6 9.6s137.6-83.2 172.8-156.8c35.2-73.6 38.4-156.8 9.6-233.6s-83.2-137.6-156.8-172.8c-54.4-25.6-115.2-35.2-172.8-25.6s-115.2 35.2-156.8 73.6l-64-70.4c73.6-64 169.6-102.4 265.6-102.4 57.6 0 115.2 12.8 169.6 38.4 96 44.8 169.6 128 204.8 227.2 28.8 102.4 25.6 211.2-22.4 307.2zM582.4 668.8h-32c-9.6 0-16-3.2-22.4-9.6s-9.6-12.8-9.6-22.4v-208c0-9.6 3.2-16 9.6-22.4l144-156.8c3.2-3.2 6.4-6.4 9.6-6.4 3.2-3.2 6.4-3.2 12.8-3.2 3.2 0 9.6 0 12.8 3.2 3.2 0 6.4 3.2 9.6 6.4l22.4 22.4c6.4 6.4 9.6 12.8 9.6 22.4s-3.2 16-9.6 22.4l-118.4 128c-6.4 6.4-9.6 12.8-9.6 22.4v172.8c0 3.2 0 9.6-3.2 12.8s0 3.2-3.2 6.4-6.4 6.4-9.6 6.4c-3.2 3.2-9.6 3.2-12.8 3.2z" />
<glyph unicode="&#xe903;" glyph-name="mypage" d="M636.8 812.8c16 6.4 28.8 9.6 44.8 9.6 25.6 0 54.4-9.6 73.6-25.6s35.2-41.6 41.6-67.2c6.4-25.6 3.2-54.4-6.4-80s-28.8-44.8-54.4-57.6l-32-128c0 0 3.2-3.2 3.2-3.2 3.2-3.2 6.4-6.4 9.6-9.6l3.2-6.4c3.2-3.2 3.2-6.4 6.4-9.6 0 0 0-3.2 3.2-3.2 0 0 3.2-3.2 3.2-3.2 0-3.2 3.2-6.4 3.2-9.6s0-3.2 3.2-6.4c0-6.4 3.2-12.8 3.2-19.2 0-22.4-9.6-44.8-25.6-60.8s-38.4-25.6-60.8-25.6h-281.6c-22.4 0-44.8 9.6-60.8 25.6s-25.6 38.4-25.6 60.8c0 6.4 0 12.8 3.2 19.2-3.2 3.2-3.2 6.4-3.2 9.6s3.2 6.4 3.2 9.6c0 3.2 0 3.2 3.2 3.2 0 0 0 0 0 3.2 3.2 3.2 3.2 6.4 6.4 9.6l3.2 6.4c3.2 3.2 6.4 6.4 9.6 9.6l3.2 3.2-35.2 131.2c-22.4 12.8-41.6 32-54.4 57.6-9.6 19.2-9.6 48-3.2 73.6s22.4 51.2 41.6 67.2 48 25.6 73.6 25.6c16 0 32-3.2 44.8-9.6 12.8 22.4 32 38.4 54.4 51.2s48 19.2 73.6 19.2c25.6 0 51.2-6.4 73.6-19.2 22.4-9.6 38.4-28.8 51.2-51.2zM371.2 361.6h281.6c9.6 0 16 6.4 22.4 12.8s9.6 16 9.6 22.4c0 3.2 0 6.4 0 9.6v3.2c0 3.2-3.2 6.4-3.2 9.6-3.2 3.2-3.2 6.4-6.4 6.4-3.2 3.2-6.4 3.2-9.6 6.4-3.2 0-9.6 3.2-12.8 3.2h-281.6c-3.2 0-9.6 0-12.8-3.2-3.2 0-6.4-3.2-9.6-6.4s-6.4-3.2-6.4-6.4-3.2-6.4-3.2-9.6v-3.2c0-3.2 0-6.4 0-9.6 0-9.6 3.2-19.2 9.6-25.6 3.2-6.4 12.8-9.6 22.4-9.6zM700.8 627.2c3.2 3.2 6.4 6.4 9.6 6.4v0c16 6.4 28.8 16 35.2 32 9.6 16 9.6 32 6.4 48s-12.8 32-22.4 41.6c-9.6 12.8-25.6 16-41.6 19.2-16 0-28.8-6.4-41.6-12.8-3.2-3.2-6.4-3.2-9.6-3.2s-6.4 0-12.8 0c-3.2 0-6.4 3.2-9.6 6.4-3.2 0-6.4 3.2-6.4 6.4-6.4 19.2-19.2 35.2-35.2 48s-35.2 19.2-57.6 19.2c-19.2 0-38.4-6.4-57.6-19.2-16-12.8-28.8-28.8-35.2-48 0-3.2-3.2-6.4-6.4-9.6s-6.4-3.2-9.6-6.4c-3.2 0-6.4 0-12.8 0-3.2 0-6.4 3.2-9.6 3.2-12.8 9.6-25.6 12.8-41.6 12.8s-32-6.4-44.8-16c-12.8-9.6-22.4-25.6-25.6-41.6s0-32 6.4-48c9.6-16 22.4-25.6 35.2-32 3.2 0 6.4-3.2 9.6-6.4s3.2-6.4 6.4-9.6l38.4-137.6h54.4l-25.6 112c0 3.2 0 6.4 0 9.6s3.2 6.4 3.2 9.6c3.2 3.2 3.2 6.4 6.4 6.4 3.2 3.2 6.4 3.2 9.6 3.2s6.4 0 9.6 0c3.2 0 6.4-3.2 9.6-3.2 3.2-3.2 6.4-3.2 6.4-6.4 6.4-3.2 6.4-6.4 6.4-9.6l25.6-121.6h16v115.2c0 6.4 3.2 12.8 6.4 19.2 3.2 3.2 9.6 6.4 19.2 6.4 6.4 0 12.8-3.2 19.2-6.4 3.2-3.2 6.4-9.6 6.4-19.2v-115.2h16l25.6 121.6c0 3.2 3.2 6.4 3.2 9.6 3.2 3.2 3.2 6.4 6.4 6.4 3.2 3.2 6.4 3.2 9.6 3.2s6.4 0 9.6 0 12.8-6.4 16-9.6c3.2-6.4 3.2-12.8 3.2-19.2l-28.8-112h54.4l38.4 137.6c3.2 3.2 3.2 9.6 6.4 9.6zM608 224c3.2 3.2 6.4 3.2 6.4 6.4 3.2 3.2 3.2 6.4 3.2 9.6s0 6.4 0 9.6c0 3.2-3.2 6.4-3.2 9.6-3.2 3.2-3.2 6.4-6.4 6.4-3.2 3.2-6.4 3.2-9.6 3.2s-6.4 0-9.6 0c-3.2 0-6.4-3.2-9.6-3.2-19.2-12.8-44.8-19.2-67.2-19.2s-48 6.4-67.2 19.2c-3.2 3.2-6.4 3.2-9.6 3.2s-6.4 0-9.6 0-6.4 0-9.6-3.2-6.4-3.2-6.4-6.4-3.2-6.4-3.2-9.6c0-3.2 0-6.4 0-9.6s3.2-6.4 3.2-9.6 3.2-6.4 6.4-6.4c28.8-19.2 64-28.8 96-28.8 32-3.2 67.2 9.6 96 28.8zM464 89.6c0 6.4 0 12.8 3.2 16 3.2 6.4 6.4 9.6 9.6 12.8l-57.6 28.8c-6.4 3.2-9.6 3.2-16 3.2s-9.6 0-16-3.2c-6.4-3.2-9.6-6.4-12.8-12.8-3.2-3.2-6.4-9.6-6.4-16v-83.2c0-6.4 3.2-9.6 6.4-16 3.2-3.2 6.4-9.6 12.8-9.6 6.4-3.2 9.6-3.2 16-3.2s9.6 3.2 16 3.2l57.6 28.8c-3.2 3.2-9.6 9.6-9.6 12.8-3.2 6.4-3.2 9.6-3.2 16v22.4zM601.6 150.4l-57.6-28.8c3.2-3.2 9.6-9.6 9.6-12.8 3.2-6.4 3.2-12.8 3.2-16v-12.8c0-6.4 0-12.8-3.2-16-3.2-6.4-6.4-9.6-9.6-12.8l57.6-28.8c3.2-3.2 9.6-3.2 16-3.2s9.6 0 16 3.2c6.4 3.2 9.6 6.4 12.8 9.6s6.4 9.6 6.4 16v83.2c0 6.4-3.2 9.6-6.4 16-3.2 3.2-6.4 9.6-12.8 12.8s-9.6 3.2-16 3.2c-6.4-6.4-12.8-9.6-16-12.8zM502.4 118.4h12.8c16 0 28.8-12.8 28.8-28.8v-12.8c0-16-12.8-28.8-28.8-28.8h-12.8c-16 0-28.8 12.8-28.8 28.8v12.8c3.2 16 16 28.8 28.8 28.8z" />
<glyph unicode="&#xe904;" glyph-name="rank" d="M128 758.4c0 57.6 44.8 102.4 102.4 102.4h563.2c57.6 0 102.4-44.8 102.4-102.4v-620.8c0-83.2-96-131.2-163.2-83.2l-163.2 115.2c-35.2 25.6-83.2 25.6-118.4 0l-163.2-115.2c-64-48-160 0-160 83.2v620.8z" />
<glyph unicode="&#xe905;" glyph-name="star" d="M953.6 556.8c-6.4 16-16 28.8-25.6 41.6-12.8 9.6-28.8 16-44.8 19.2l-188.8 28.8c-3.2 0-6.4 3.2-9.6 3.2s-6.4 6.4-6.4 9.6l-83.2 169.6c-6.4 16-19.2 28.8-32 35.2-28.8 16-64 16-92.8 0-12.8-9.6-25.6-22.4-32-35.2l-83.2-169.6c-3.2-3.2-3.2-6.4-6.4-9.6s-6.4-3.2-9.6-3.2l-188.8-28.8c-16-3.2-32-9.6-44.8-19.2s-22.4-25.6-25.6-41.6c-6.4-16-6.4-32-3.2-48s12.8-32 25.6-41.6l137.6-134.4c3.2-3.2 6.4-6.4 6.4-9.6s0-6.4 0-12.8l-32-188.8c-3.2-16 0-32 6.4-48s16-28.8 28.8-38.4c12.8-9.6 28.8-16 44.8-16s32 3.2 48 9.6l169.6 89.6c6.4 3.2 16 3.2 22.4 0l169.6-89.6c12.8-6.4 25.6-9.6 41.6-9.6 3.2 0 3.2 0 6.4 0 16 0 32 6.4 44.8 16s22.4 22.4 28.8 38.4c6.4 16 9.6 32 6.4 48l-32 188.8c0 3.2 0 6.4 0 12.8 0 3.2 3.2 6.4 6.4 9.6l137.6 134.4c12.8 12.8 19.2 25.6 25.6 41.6-9.6 16-9.6 32-16 48z" />
<glyph unicode="&#xe906;" glyph-name="search" d="M838.4 156.8c0-19.2-16-35.2-35.2-35.2s-35.2 16-35.2 35.2c0 19.2 16 35.2 35.2 35.2s35.2-16 35.2-35.2zM358.4 752c-3.2-3.2-9.6-6.4-16-6.4v0h-6.4c-16 0-25.6 9.6-28.8 22.4-3.2 16 6.4 28.8 19.2 32 3.2 0 6.4 0 9.6 0 16 0 28.8-9.6 28.8-25.6 0-9.6-3.2-16-6.4-22.4zM163.2 649.6c12.8 48 41.6 89.6 80 118.4v0c12.8 6.4 28.8 3.2 38.4-9.6 9.6-9.6 6.4-28.8-6.4-38.4-28.8-19.2-48-48-57.6-83.2 0-6.4-3.2-9.6-6.4-12.8-6.4-6.4-16-9.6-25.6-6.4-16 3.2-25.6 19.2-22.4 32zM560 809.6c-112 112-297.6 112-409.6 0s-112-297.6 0-409.6c83.2-83.2 208-108.8 316.8-64l38.4-38.4-9.6-9.6c-9.6-9.6-9.6-28.8 0-38.4l204.8-204.8c60.8-60.8 156.8-60.8 214.4 0 60.8 60.8 60.8 156.8 0 214.4l-204.8 204.8c-9.6 9.6-28.8 9.6-38.4 0l-9.6-9.6-38.4 38.4c44.8 108.8 19.2 233.6-64 316.8v0zM876.8 220.8c38.4-38.4 38.4-99.2 0-137.6s-99.2-38.4-137.6 0l-185.6 185.6 137.6 137.6 185.6-185.6zM544 336l-54.4 54.4c-9.6 9.6-22.4 9.6-32 6.4-89.6-44.8-198.4-28.8-272 44.8-89.6 89.6-89.6 240 3.2 329.6 89.6 92.8 240 92.8 332.8 0 70.4-70.4 89.6-179.2 44.8-272-6.4-9.6-3.2-22.4 6.4-32l54.4-54.4-83.2-76.8z" />
<glyph unicode="&#xe907;" glyph-name="category-01" d="M406.4 835.2c6.4 22.4 3.2 41.6-9.6 60.8-12.8-3.2-22.4-6.4-28.8-16-9.6-6.4-16-16-19.2-25.6s-6.4-22.4-3.2-32 6.4-22.4 12.8-28.8c19.2 6.4 35.2 22.4 48 41.6zM307.2 713.6c9.6 6.4 16 16 22.4 25.6 3.2 9.6 6.4 22.4 6.4 32s-3.2 22.4-9.6 32c-9.6 6.4-19.2 16-28.8 19.2-9.6-6.4-16-16-19.2-25.6s-6.4-22.4-6.4-32c0-9.6 3.2-22.4 9.6-32 6.4-6.4 16-12.8 25.6-19.2zM428.8 784c0-22.4-12.8-41.6-28.8-57.6-19.2-9.6-41.6-16-64-12.8 0 9.6 0 22.4 6.4 32 3.2 9.6 12.8 19.2 22.4 25.6s19.2 12.8 32 12.8c9.6 3.2 22.4 3.2 32 0zM300.8 608c3.2 12.8 6.4 22.4 6.4 35.2s-3.2 25.6-9.6 35.2c-9.6 12.8-16 22.4-28.8 28.8-9.6 9.6-22.4 12.8-35.2 16-3.2-9.6-6.4-22.4-3.2-35.2 0-12.8 3.2-25.6 9.6-35.2s16-19.2 25.6-28.8c9.6-6.4 22.4-12.8 35.2-16zM368 700.8c12.8 6.4 25.6 9.6 38.4 9.6 3.2-25.6-6.4-51.2-22.4-70.4-19.2-19.2-41.6-28.8-70.4-35.2-3.2 12.8 0 25.6 3.2 38.4s9.6 22.4 19.2 32c9.6 9.6 22.4 19.2 32 25.6zM281.6 502.4c6.4 28.8 3.2 57.6-6.4 83.2-12.8 22.4-35.2 41.6-60.8 48-6.4-28.8-3.2-57.6 6.4-83.2 12.8-22.4 35.2-38.4 60.8-48zM291.2 499.2c3.2 28.8 16 54.4 38.4 76.8 22.4 16 48 25.6 76.8 25.6-3.2-28.8-16-54.4-38.4-76.8-22.4-16-51.2-25.6-76.8-25.6zM256 390.4c6.4 32 0 67.2-12.8 96-12.8 25.6-35.2 44.8-64 54.4-6.4-32 0-67.2 12.8-96 12.8-22.4 35.2-41.6 64-54.4zM307.2 390.4c-12.8-3.2-28.8-6.4-44.8-3.2 9.6 32 28.8 60.8 54.4 83.2 12.8 9.6 25.6 16 38.4 19.2s28.8 6.4 44.8 3.2c-9.6-32-28.8-60.8-54.4-83.2-12.8-9.6-25.6-16-38.4-19.2zM841.6 659.2c12.8 16 22.4 38.4 22.4 57.6-22.4 3.2-44.8-3.2-64-16-16-16-22.4-35.2-22.4-57.6 22.4 0 44.8 3.2 64 16zM745.6 697.6c9.6-19.2 12.8-41.6 3.2-60.8-12.8-19.2-28.8-32-51.2-38.4-9.6 19.2-12.8 41.6-3.2 60.8 9.6 16 28.8 32 51.2 38.4zM784 624c-22.4-6.4-41.6-19.2-54.4-35.2 6.4-9.6 16-12.8 28.8-19.2 9.6-3.2 22.4-6.4 35.2-3.2 12.8 0 22.4 6.4 32 12.8s16 16 22.4 25.6c-19.2 12.8-41.6 19.2-64 19.2zM643.2 640c19.2-19.2 28.8-41.6 32-64-3.2-25.6-12.8-48-32-64-9.6 9.6-16 19.2-22.4 28.8-6.4 12.8-9.6 22.4-9.6 35.2s3.2 25.6 9.6 35.2c6.4 9.6 12.8 22.4 22.4 28.8zM710.4 550.4c-25.6-12.8-44.8-28.8-54.4-54.4 12.8-6.4 25.6-6.4 38.4-6.4s25.6 3.2 38.4 6.4c12.8 6.4 22.4 12.8 32 22.4s16 19.2 22.4 32c-22.4 6.4-51.2 6.4-76.8 0zM582.4 566.4c19.2-19.2 28.8-44.8 28.8-70.4-3.2-28.8-16-54.4-35.2-76.8-19.2 19.2-28.8 44.8-28.8 70.4 3.2 28.8 16 57.6 35.2 76.8zM652.8 467.2c-28.8-9.6-54.4-28.8-70.4-51.2 25.6-12.8 54.4-16 80-9.6 28.8 9.6 54.4 28.8 70.4 51.2-25.6 12.8-54.4 16-80 9.6zM505.6 502.4c19.2-22.4 28.8-48 28.8-76.8-3.2-32-16-64-38.4-89.6-19.2 22.4-28.8 48-28.8 76.8 6.4 32 19.2 64 38.4 89.6zM592 377.6c-35.2-9.6-64-25.6-89.6-51.2 12.8-6.4 25.6-12.8 41.6-16 12.8-3.2 28.8-3.2 44.8 0 35.2 9.6 64 25.6 89.6 51.2-12.8 6.4-25.6 12.8-41.6 16s-28.8 3.2-44.8 0zM428.8 240c22.4 22.4 51.2 38.4 80 48 16 3.2 32 3.2 48 0s32-9.6 44.8-16c-25.6-28.8-57.6-48-92.8-60.8-25.6-6.4-54.4-3.2-80 6.4-86.4-73.6-99.2-204.8-99.2-208s0-6.4-3.2-6.4-3.2-3.2-6.4-3.2v0c-3.2 0-3.2 0-6.4 0s-3.2 3.2-3.2 3.2c-99.2 102.4-83.2 240-80 262.4-25.6 12.8-44.8 32-57.6 57.6-12.8 35.2-16 70.4-6.4 105.6 28.8-12.8 54.4-35.2 67.2-64s16-60.8 9.6-92.8c9.6 32 25.6 60.8 48 83.2 25.6 19.2 57.6 32 89.6 28.8-9.6-35.2-25.6-67.2-54.4-96-19.2-16-44.8-25.6-70.4-28.8-9.6-73.6 9.6-150.4 54.4-214.4 12.8 70.4 48 137.6 102.4 192-16 22.4-22.4 48-19.2 73.6 6.4 35.2 22.4 67.2 44.8 96 19.2-25.6 32-54.4 28.8-86.4-6.4-25.6-19.2-54.4-38.4-80z" />
<glyph unicode="&#xe908;" glyph-name="category-02" d="M278.4 627.2c12.8 0 25.6 12.8 25.6 25.6s-12.8 25.6-25.6 25.6c-12.8 0-25.6-12.8-25.6-25.6 0-16 9.6-25.6 25.6-25.6zM553.6 697.6c12.8 0 25.6 12.8 25.6 25.6s-12.8 25.6-25.6 25.6c-12.8 0-25.6-12.8-25.6-25.6s9.6-25.6 25.6-25.6zM246.4 422.4c12.8 0 25.6 12.8 25.6 25.6s-12.8 25.6-25.6 25.6c-12.8 0-25.6-12.8-25.6-25.6s12.8-25.6 25.6-25.6zM422.4 566.4c12.8 0 25.6 12.8 25.6 25.6s-12.8 25.6-25.6 25.6c-12.8 0-25.6-12.8-25.6-25.6 0-16 12.8-25.6 25.6-25.6zM585.6 844.8c12.8 0 25.6 12.8 25.6 25.6s-12.8 25.6-25.6 25.6-25.6-12.8-25.6-25.6c0-12.8 9.6-25.6 25.6-25.6zM400 796.8c12.8 0 25.6 12.8 25.6 25.6s-12.8 25.6-25.6 25.6c-12.8 0-25.6-12.8-25.6-25.6 0-16 9.6-25.6 25.6-25.6zM729.6 681.6c12.8 0 25.6 12.8 25.6 25.6s-12.8 25.6-25.6 25.6c-12.8 0-25.6-12.8-25.6-25.6s12.8-25.6 25.6-25.6zM624 544c12.8 0 25.6 12.8 25.6 25.6s-12.8 25.6-25.6 25.6-25.6-12.8-25.6-25.6c0-12.8 12.8-25.6 25.6-25.6zM774.4 448c12.8 0 25.6 12.8 25.6 25.6s-12.8 25.6-25.6 25.6c-12.8 0-25.6-12.8-25.6-25.6s12.8-25.6 25.6-25.6zM828.8 185.6c-73.6 51.2-134.4 115.2-185.6 185.6-12.8 22.4-32 41.6-54.4 54.4-22.4 16-51.2 22.4-76.8 22.4s-54.4-6.4-76.8-19.2c-22.4-12.8-41.6-32-54.4-54.4-51.2-73.6-112-137.6-185.6-185.6-54.4-35.2-92.8-89.6-105.6-150.4 0-3.2 0-9.6 0-12.8s3.2-9.6 6.4-12.8c3.2-3.2 6.4-6.4 9.6-6.4 3.2-6.4 6.4-6.4 12.8-6.4h790.4c3.2 0 9.6 0 12.8 3.2s6.4 3.2 9.6 6.4c3.2 3.2 6.4 6.4 6.4 12.8 0 3.2 0 9.6 0 12.8-16 60.8-54.4 115.2-108.8 150.4zM233.6 67.2c-6.4 0-9.6 0-12.8 3.2s-6.4 6.4-9.6 12.8c-3.2 3.2-3.2 9.6 0 16 0 6.4 3.2 9.6 6.4 12.8s9.6 6.4 12.8 6.4c6.4 0 9.6 0 16 0 3.2-3.2 9.6-6.4 12.8-9.6s3.2-9.6 3.2-12.8c0-6.4-3.2-12.8-6.4-19.2-9.6-6.4-16-9.6-22.4-9.6zM332.8 176c-6.4 0-9.6 0-12.8 3.2s-6.4 6.4-9.6 12.8c-3.2 3.2-3.2 9.6 0 16s3.2 9.6 6.4 12.8c3.2 3.2 9.6 6.4 12.8 6.4 6.4 0 9.6 0 16 0 3.2-3.2 9.6-6.4 12.8-9.6s3.2-9.6 3.2-12.8c0-6.4-3.2-12.8-6.4-19.2-6.4-9.6-12.8-9.6-22.4-9.6zM400 281.6c0 6.4 3.2 12.8 6.4 19.2 6.4 6.4 12.8 6.4 19.2 6.4s12.8-3.2 19.2-6.4c6.4-6.4 6.4-12.8 6.4-19.2s-3.2-12.8-6.4-19.2c-6.4-6.4-12.8-6.4-19.2-6.4s-12.8 3.2-19.2 6.4c-3.2 6.4-6.4 12.8-6.4 19.2zM441.6 76.8c-6.4 0-9.6 0-12.8 3.2s-6.4 6.4-9.6 12.8c-3.2 3.2-3.2 9.6-3.2 12.8 0 6.4 3.2 9.6 6.4 12.8s9.6 6.4 12.8 6.4c6.4 0 9.6 0 16 0 3.2-3.2 9.6-6.4 12.8-9.6s3.2-9.6 3.2-12.8c0-6.4-3.2-12.8-6.4-19.2-6.4-6.4-12.8-6.4-19.2-6.4zM553.6 160c-6.4 0-9.6 0-12.8 3.2s-6.4 6.4-9.6 12.8c-3.2 3.2-3.2 9.6 0 16 0 6.4 3.2 9.6 6.4 12.8s9.6 6.4 12.8 6.4c6.4 0 9.6 0 16 0 3.2-3.2 9.6-6.4 12.8-9.6s3.2-9.6 3.2-12.8c0-6.4-3.2-12.8-6.4-19.2-9.6-6.4-16-9.6-22.4-9.6zM566.4 310.4c-6.4 0-9.6 0-12.8 3.2s-6.4 6.4-9.6 12.8c-3.2 3.2-3.2 9.6 0 16 0 6.4 3.2 9.6 6.4 12.8s9.6 6.4 12.8 6.4c6.4 0 9.6 0 16 0 3.2-3.2 9.6-6.4 12.8-9.6s3.2-9.6 3.2-12.8c0-6.4-3.2-12.8-6.4-19.2-9.6-6.4-16-9.6-22.4-9.6zM652.8 64c-6.4 0-12.8 3.2-19.2 6.4-6.4 6.4-6.4 12.8-6.4 19.2s3.2 12.8 6.4 19.2c6.4 6.4 12.8 6.4 19.2 6.4s12.8-3.2 19.2-6.4c6.4-6.4 6.4-12.8 6.4-19.2s-3.2-12.8-6.4-19.2c-6.4-3.2-12.8-6.4-19.2-6.4zM729.6 163.2c-6.4 0-9.6 0-12.8 3.2s-6.4 6.4-9.6 12.8c-3.2 3.2-3.2 9.6 0 16 0 6.4 3.2 9.6 6.4 12.8s9.6 6.4 12.8 6.4c6.4 0 9.6 0 16 0s9.6-6.4 12.8-9.6c3.2-3.2 3.2-9.6 3.2-12.8 0-6.4-3.2-12.8-6.4-19.2-9.6-6.4-16-9.6-22.4-9.6zM812.8 60.8c-6.4 0-9.6 0-12.8 3.2s-6.4 6.4-9.6 12.8c-3.2 3.2-3.2 9.6 0 16 0 6.4 3.2 9.6 6.4 12.8s9.6 6.4 12.8 6.4c6.4 0 9.6 0 16 0 3.2-3.2 9.6-6.4 12.8-9.6s3.2-9.6 3.2-12.8c0-6.4-3.2-12.8-6.4-19.2-9.6-6.4-16-9.6-22.4-9.6z" />
<glyph unicode="&#xe909;" glyph-name="category-03" d="M636.8 697.6c-73.6 99.2-172.8 208-268.8 192h-9.6c-96-25.6-134.4-179.2-144-304-12.8-118.4-9.6-243.2 16-361.6 12.8-44.8 35.2-86.4 64-118.4 28.8-35.2 67.2-60.8 108.8-80 41.6-16 89.6-25.6 134.4-22.4s89.6 16 131.2 38.4c57.6 32 102.4 83.2 128 144s28.8 128 12.8 192c-41.6 115.2-99.2 224-172.8 320zM576 80c-25.6-6.4-92.8 64-128 201.6-38.4 144-73.6 425.6-64 521.6 54.4-76.8 166.4-336 204.8-483.2 32-137.6 12.8-233.6-12.8-240zM403.2 102.4c-25.6 16-48 35.2-67.2 57.6s-32 51.2-38.4 80c-22.4 112-25.6 224-12.8 336 3.2 48 12.8 92.8 22.4 137.6 9.6-153.6 32-304 67.2-454.4 16-64 44.8-124.8 83.2-179.2-19.2 6.4-38.4 12.8-54.4 22.4v0zM736 358.4c6.4-28.8 9.6-57.6 6.4-89.6-3.2-28.8-12.8-57.6-28.8-83.2-9.6-19.2-22.4-35.2-38.4-48 6.4 67.2 0 134.4-19.2 201.6-32 112-73.6 220.8-121.6 326.4-16 38.4-32 73.6-48 99.2 32-32 64-67.2 89.6-105.6 70.4-92.8 121.6-195.2 160-300.8v0z" />
<glyph unicode="&#xe90a;" glyph-name="category-04" d="M473.6 764.8c-83.2-9.6-156.8-51.2-208-115.2 0-3.2-3.2-3.2-3.2-6.4s0-3.2 0-6.4 0-3.2 3.2-6.4 3.2-3.2 6.4-3.2l224-128v249.6c0 3.2 0 3.2-3.2 6.4 0 3.2-3.2 3.2-3.2 6.4-3.2 0-3.2 3.2-6.4 3.2s-6.4 0-9.6 0zM764.8 630.4c0 3.2 0 3.2 0 6.4s0 3.2-3.2 6.4c-51.2 64-124.8 105.6-204.8 118.4-3.2 0-3.2 0-6.4 0s-3.2-3.2-6.4-3.2c0 0-3.2-3.2-3.2-6.4s0-3.2 0-6.4v-249.6l214.4 124.8c3.2 0 3.2 3.2 6.4 3.2 3.2 3.2 3.2 6.4 3.2 6.4zM256 265.6c0-3.2 0-3.2 0-6.4s0-3.2 3.2-6.4c25.6-32 57.6-60.8 96-83.2s76.8-35.2 118.4-38.4h3.2c3.2 0 9.6 3.2 12.8 6.4s6.4 6.4 6.4 12.8v262.4l-227.2-131.2c-3.2 0-3.2-3.2-6.4-3.2-3.2-6.4-6.4-9.6-6.4-12.8zM544 409.6l220.8-128c3.2 0 3.2-3.2 6.4-3.2 3.2-3.2 3.2-3.2 3.2-6.4s0-3.2 0-6.4 0-3.2-3.2-6.4c-51.2-67.2-124.8-112-204.8-124.8h-3.2c-3.2 0-9.6 3.2-12.8 6.4s-6.4 6.4-6.4 9.6v259.2zM800 576c3.2-3.2 6.4-3.2 6.4-6.4 16-38.4 25.6-80 25.6-121.6 0-38.4-6.4-76.8-19.2-112 0-3.2-3.2-6.4-6.4-6.4-3.2-3.2-6.4-3.2-9.6-3.2s-6.4 0-9.6 3.2l-220.8 128 217.6 124.8c3.2 0 6.4 3.2 9.6 3.2 0-6.4 3.2-6.4 6.4-9.6zM243.2 582.4c-3.2 0-6.4 3.2-9.6 3.2s-6.4 0-9.6-3.2c-3.2-3.2-6.4-3.2-6.4-6.4-16-38.4-25.6-80-25.6-124.8 0-41.6 6.4-83.2 22.4-121.6 0-3.2 3.2-6.4 6.4-6.4 3.2-3.2 6.4-3.2 9.6-3.2s6.4 0 9.6 3.2l227.2 131.2-224 128zM272 809.6c70.4 48 156.8 73.6 240 73.6 115.2 0 224-44.8 307.2-128 80-80 128-192 128-307.2 0-86.4-25.6-169.6-73.6-240s-115.2-128-195.2-160c-80-32-166.4-41.6-249.6-25.6s-163.2 57.6-220.8 118.4c-60.8 60.8-102.4 137.6-118.4 224-16 83.2-9.6 172.8 25.6 249.6 28.8 80 83.2 147.2 156.8 195.2zM307.2 140.8c60.8-41.6 131.2-60.8 204.8-60.8 99.2 0 192 38.4 262.4 108.8s108.8 163.2 108.8 262.4c0 73.6-22.4 144-60.8 204.8-41.6 60.8-99.2 108.8-166.4 137.6s-144 32-217.6 16c-70.4-12.8-137.6-48-188.8-102.4s-86.4-118.4-102.4-188.8c-12.8-70.4-6.4-147.2 22.4-214.4 28.8-64 76.8-124.8 137.6-163.2z" />
<glyph unicode="&#xe90b;" glyph-name="category-05" d="M563.2 371.2c0-16-6.4-28.8-19.2-32l16-28.8c3.2-3.2 3.2-9.6 3.2-12.8s0-9.6-3.2-12.8c0 0-3.2-3.2-3.2-3.2s-3.2 0-3.2 0h-3.2c-3.2 0-3.2 3.2-6.4 3.2-3.2 3.2-3.2 3.2-3.2 6.4l-16 32v-16c0-3.2 0-3.2 0-6.4 0 0 0-3.2-3.2-3.2 0 0-3.2-3.2-3.2-3.2s-3.2 0-6.4 0h-3.2c-3.2 0-6.4 3.2-6.4 6.4-3.2 3.2-3.2 6.4-3.2 9.6 0 0-3.2-3.2-3.2-3.2s-3.2 0-3.2 0h-3.2l-41.6 12.8c-6.4 3.2-12.8 9.6-12.8 25.6v70.4c0 0-3.2 0-3.2 0h-3.2l-12.8 3.2v-76.8c0-3.2 0-3.2 0-6.4s0-3.2-3.2-3.2c0 0-3.2-3.2-3.2-3.2s-3.2 0-6.4 0h-3.2c-3.2 0-6.4 3.2-9.6 6.4s-3.2 6.4-3.2 12.8v80l-16 6.4c-3.2 0-3.2 0-3.2 3.2 0 0-3.2 3.2-3.2 3.2-3.2-3.2-3.2-3.2-6.4-3.2h-6.4l-12.8 3.2v-76.8c0-3.2 0-3.2 0-6.4s0-3.2-3.2-3.2c0 0-3.2-3.2-3.2-3.2s-3.2 0-6.4 0h-3.2c-3.2 0-6.4 3.2-9.6 6.4s-3.2 6.4-3.2 12.8v80l-16 6.4c0 0-3.2 0-3.2 3.2v-44.8c0-9.6-3.2-19.2-6.4-25.6-3.2-3.2-6.4-6.4-9.6-9.6s-9.6-3.2-12.8-3.2c-3.2 0-6.4 0-9.6 0-12.8 6.4-22.4 16-28.8 28.8-3.2 6.4-3.2 12.8-6.4 19.2 0-6.4-3.2-9.6-6.4-12.8s-6.4-6.4-12.8-9.6c-3.2 0-3.2 0-6.4 0s-9.6 0-12.8 3.2l-19.2 3.2c-6.4 3.2-16 9.6-16 25.6v80c0 16 9.6 19.2 12.8 19.2h6.4l16-6.4c6.4-3.2 12.8-6.4 19.2-9.6 3.2-3.2 9.6-9.6 9.6-16 3.2-6.4 3.2-12.8 3.2-19.2 0-3.2 0-9.6-3.2-12.8s-3.2-6.4-6.4-9.6c6.4-6.4 9.6-12.8 9.6-19.2v57.6c0 3.2 0 3.2 0 6.4 0 0 0 3.2 3.2 3.2 0 0 3.2 3.2 3.2 3.2s3.2 0 6.4 0h3.2c3.2 0 6.4-3.2 9.6-6.4s3.2-6.4 3.2-9.6v-60.8c0-16 3.2-25.6 9.6-25.6s6.4 12.8 6.4 16v60.8c0 3.2 0 3.2 0 6.4 0 0 0 3.2 3.2 3.2 0 0 3.2 3.2 3.2 3.2s3.2 0 3.2 0h3.2c3.2 0 3.2-3.2 6.4-3.2 3.2-3.2 3.2-3.2 3.2-6.4 0 0 3.2 3.2 6.4 3.2h3.2l54.4-19.2c3.2 0 3.2-3.2 3.2-3.2s3.2-3.2 3.2-3.2c0 0 3.2 0 3.2 3.2 0 0 3.2 0 3.2 0h3.2l54.4-19.2c3.2 0 3.2-3.2 6.4-3.2 0-3.2 3.2-3.2 3.2-6.4 0 0 3.2 3.2 3.2 3.2s3.2 0 3.2 0h6.4l38.4-12.8c6.4-3.2 9.6-12.8 9.6-19.2 0 0 0 0 0-3.2 0 3.2 3.2 6.4 6.4 9.6s6.4 3.2 9.6 3.2c3.2 0 3.2 0 6.4 0l16-6.4c9.6-3.2 16-6.4 22.4-16 16-3.2 19.2-16 19.2-28.8zM176 502.4h-6.4v-12.8l6.4-3.2h3.2c3.2 0 3.2 0 3.2 3.2s0 6.4-3.2 6.4c0 6.4-3.2 6.4-3.2 6.4zM179.2 438.4c0 0 3.2 0 3.2 0v0c0 0 3.2 0 3.2 6.4 0 3.2 0 6.4-3.2 9.6s-6.4 3.2-9.6 6.4h-3.2v-16l9.6-6.4zM454.4 352l28.8-9.6c0 0 3.2 0 3.2-3.2 0 0 3.2-3.2 3.2-3.2v67.2c0 3.2 0 6.4 0 6.4 0-3.2 0-3.2-3.2-6.4-3.2 0-3.2-3.2-6.4-3.2v0l-25.6 9.6v-12.8l25.6-6.4c6.4-3.2 9.6-9.6 9.6-16 0-9.6-3.2-12.8-9.6-12.8h-3.2l-22.4 6.4v-16zM524.8 371.2c3.2 0 3.2 0 6.4 0v0c0 0 3.2 0 3.2 3.2s0 6.4-3.2 9.6c-3.2 3.2-3.2 3.2-6.4 3.2h-3.2v-16h3.2zM940.8 672c0-3.2 0-3.2 0-6.4h3.2v-464c0 0 0-3.2 0-3.2 0-3.2 0-3.2-3.2-6.4v0l-12.8-12.8-6.4-3.2-294.4-80c-3.2 0-3.2 0-6.4 0s-6.4 0-9.6 3.2l-515.2 188.8c-3.2 0-3.2 3.2-6.4 3.2 0 0-3.2 0-3.2 3.2 0 0 0 0 0 0s-3.2 3.2-3.2 3.2c0 0-3.2 3.2-3.2 3.2s0 3.2 0 3.2 0 3.2 0 6.4v380.8c0 0 0 3.2 0 3.2s0 0 0 3.2v0c0 3.2 0 3.2 3.2 6.4 0 0 0 3.2 0 3.2 3.2 3.2 3.2 6.4 6.4 6.4h3.2c3.2 0 3.2 3.2 6.4 3.2l297.6 83.2c3.2 0 6.4 0 9.6 0l515.2-108.8c3.2 0 6.4-3.2 9.6-3.2 3.2-3.2 6.4-6.4 6.4-9.6v-3.2c3.2 0 3.2 0 3.2-3.2zM588.8 563.2l-460.8 96v-326.4l460.8-169.6v400zM796.8 662.4l-396.8 86.4-182.4-54.4 400-83.2 179.2 51.2zM809.6 611.2l-118.4-32 54.4-25.6 64 57.6zM764.8 486.4l-124.8 57.6v-345.6l124.8 144v144zM838.4 211.2l-76.8 41.6-70.4-80 147.2 38.4zM812.8 310.4l-12.8-16 86.4-44.8v355.2l-83.2-76.8h3.2c3.2-3.2 9.6-6.4 12.8-9.6s3.2-9.6 3.2-16v-172.8c-3.2-6.4-3.2-12.8-9.6-19.2z" />
<glyph unicode="&#xe90c;" glyph-name="category-06" d="M886.4 464c-3.2 16-6.4 32-12.8 44.8 0 6.4 0 12.8 0 19.2 0 28.8-9.6 57.6-28.8 80s-44.8 38.4-70.4 48c0 25.6-6.4 48-16 73.6-38.4 112-105.6 140.8-153.6 131.2-25.6-6.4-44.8-19.2-60.8-41.6-16-19.2-22.4-44.8-19.2-70.4 0-3.2 0-9.6 0-12.8-28.8 22.4-67.2 32-102.4 32-12.8 0-22.4 0-35.2-3.2l-9.6-3.2c-6.4-3.2-16-3.2-22.4-6.4l-6.4-3.2c-9.6-3.2-16-6.4-22.4-12.8l-9.6-3.2c-6.4-6.4-16-12.8-25.6-19.2-6.4-9.6-12.8-16-19.2-25.6-3.2-3.2-3.2-6.4-6.4-12.8l-9.6-12.8c-3.2-6.4-3.2-12.8-6.4-19.2s0-3.2 0-6.4c-25.6-9.6-51.2-25.6-67.2-48s-25.6-51.2-25.6-76.8c0-9.6 0-16 3.2-25.6-3.2-9.6-9.6-19.2-9.6-28.8h-12.8c-9.6 0-19.2-3.2-25.6-9.6s-9.6-16-9.6-25.6c0-73.6 12.8-144 44.8-211.2 28.8-67.2 73.6-124.8 128-172.8 6.4-6.4 16-9.6 22.4-9.6h435.2c9.6 0 16 3.2 25.6 9.6 54.4 48 99.2 105.6 128 172.8s44.8 137.6 44.8 211.2c0 6.4 0 9.6-3.2 16-3.2 3.2-6.4 9.6-9.6 12.8s-9.6 6.4-12.8 9.6c-9.6-3.2-12.8 0-19.2 0zM233.6 499.2c-3.2 6.4-3.2 9.6-3.2 16 0 12.8 3.2 22.4 12.8 32 3.2-12.8 6.4-22.4 9.6-35.2 3.2-6.4 6.4-12.8 12.8-16s12.8-6.4 22.4-6.4c6.4 0 9.6 0 16 3.2 9.6 3.2 16 12.8 19.2 19.2 3.2 9.6 3.2 19.2 0 28.8-3.2 19.2-6.4 35.2-6.4 48 0 6.4 0 9.6 0 16s3.2 12.8 3.2 19.2c3.2 6.4 3.2 9.6 6.4 16v3.2c3.2 3.2 3.2 6.4 6.4 9.6 0 0 3.2 3.2 6.4 6.4l6.4 6.4c3.2 3.2 6.4 6.4 9.6 9.6l6.4 3.2c3.2 3.2 6.4 3.2 9.6 6.4 3.2 0 3.2 3.2 6.4 3.2l12.8 3.2h6.4c6.4 0 12.8 3.2 19.2 3.2 16 0 32-3.2 48-12.8 16-6.4 28.8-19.2 38.4-32 6.4-3.2 9.6-9.6 16-9.6 6.4-3.2 12.8-3.2 19.2-3.2s12.8 3.2 16 6.4c6.4 3.2 9.6 6.4 12.8 12.8 22.4 28.8 32 64 32 102.4 0 16 6.4 28.8 16 32s44.8-16 67.2-83.2c9.6-25.6 12.8-51.2 9.6-80 0-6.4 0-9.6 3.2-16s3.2-9.6 9.6-12.8c3.2-3.2 6.4-6.4 12.8-9.6 3.2-3.2 9.6-3.2 16-3.2h3.2c6.4 0 16 0 22.4-3.2s12.8-6.4 19.2-12.8c6.4-6.4 9.6-12.8 12.8-19.2s6.4-16 6.4-22.4c0-3.2 0-9.6 0-12.8-3.2-6.4-3.2-16 0-25.6s6.4-19.2 9.6-25.6h-579.2c0 3.2 3.2 6.4 3.2 6.4 3.2 3.2 3.2 9.6 3.2 16 3.2 3.2 3.2 9.6 0 12.8v0zM713.6 112h-406.4c-76.8 73.6-124.8 172.8-131.2 278.4h672c-9.6-108.8-54.4-208-134.4-278.4v0z" />
<glyph unicode="&#xe90d;" glyph-name="category-07" d="M966.4 326.4l-48 89.6c3.2 3.2 6.4 6.4 6.4 12.8 0 3.2 0 9.6-3.2 12.8-38.4 76.8-96 137.6-169.6 182.4 0 3.2-3.2 9.6-3.2 12.8-3.2 9.6-9.6 16-19.2 22.4s-16 12.8-25.6 12.8c-128 32-259.2 32-384 0-9.6 0-19.2-6.4-28.8-12.8-6.4-6.4-12.8-12.8-19.2-22.4-3.2-3.2-3.2-6.4-3.2-12.8-70.4-44.8-131.2-108.8-169.6-182.4-3.2-3.2-3.2-9.6-3.2-12.8s3.2-9.6 6.4-12.8l-48-89.6c-12.8-19.2-16-41.6-9.6-64 3.2-9.6 6.4-22.4 12.8-28.8 6.4-9.6 16-16 25.6-22.4 12.8-6.4 25.6-9.6 41.6-9.6 22.4 0 44.8 6.4 64 16 28.8 12.8 112 44.8 128 54.4h80l9.6-25.6c3.2-3.2 3.2-6.4 9.6-9.6 3.2-3.2 9.6-3.2 12.8-3.2 38.4 0 60.8-3.2 80-3.2 22.4 0 41.6 0 80 3.2 3.2 0 9.6 3.2 12.8 3.2 3.2 3.2 6.4 6.4 9.6 9.6l9.6 25.6h83.2c19.2-6.4 99.2-41.6 128-54.4 19.2-9.6 41.6-16 64-16 12.8 0 28.8 3.2 41.6 9.6 9.6 6.4 19.2 12.8 25.6 22.4s12.8 19.2 12.8 28.8 3.2 41.6-9.6 64zM172.8 256c-9.6-6.4-22.4-9.6-32-9.6-12.8 0-22.4 0-35.2 3.2-3.2 0-6.4 3.2-9.6 6.4s-3.2 6.4-6.4 12.8c-3.2 12.8 0 22.4 6.4 32l60.8 115.2c32-6.4 80-48 124.8-112-28.8-12.8-83.2-35.2-108.8-48zM332.8 313.6c-32 44.8-102.4 131.2-166.4 144 28.8 44.8 67.2 83.2 108.8 112 6.4-16 12.8-32 19.2-44.8l3.2-9.6c3.2-6.4 6.4-16 9.6-22.4 0-3.2 3.2-6.4 3.2-9.6l9.6-25.6 3.2-6.4c16-41.6 35.2-86.4 54.4-137.6h-44.8zM627.2 403.2c0-3.2-3.2-6.4-3.2-9.6-3.2-9.6-9.6-22.4-12.8-32 0-3.2-3.2-6.4-3.2-6.4l-12.8-38.4c-6.4-12.8-9.6-25.6-16-38.4-57.6-3.2-70.4-3.2-128 0-9.6 25.6-19.2 51.2-28.8 76.8l-6.4 3.2-12.8 32c0 3.2-3.2 6.4-3.2 9.6-3.2 9.6-6.4 19.2-9.6 28.8-3.2 3.2-3.2 9.6-6.4 12.8-3.2 9.6-6.4 16-9.6 25.6-3.2 6.4-3.2 9.6-6.4 12.8-3.2 6.4-6.4 12.8-9.6 22.4l-6.4 16c-3.2 6.4-6.4 12.8-6.4 16s-6.4 12.8-9.6 19.2c-3.2 6.4-3.2 9.6-6.4 12.8l-12.8 28.8c0 0 0 0 0 0 0 3.2-3.2 6.4-3.2 9.6s0 6.4 3.2 9.6c0 3.2 3.2 6.4 6.4 6.4 3.2 3.2 6.4 3.2 9.6 3.2 118.4 28.8 243.2 28.8 361.6 0 3.2 0 6.4-3.2 9.6-3.2 3.2-3.2 3.2-3.2 6.4-6.4 0-3.2 3.2-6.4 3.2-9.6s0-6.4-3.2-9.6l-12.8-28.8-16-32c-3.2-6.4-6.4-12.8-6.4-16-3.2-6.4-3.2-9.6-6.4-16l-9.6-22.4c-3.2-3.2-3.2-9.6-6.4-12.8l-9.6-25.6c-3.2-3.2-3.2-9.6-6.4-12.8l-9.6-25.6zM691.2 313.6h-51.2c19.2 51.2 38.4 96 54.4 137.6 0 3.2 3.2 6.4 3.2 6.4 3.2 9.6 6.4 16 9.6 25.6l3.2 9.6c3.2 6.4 6.4 16 9.6 22.4l3.2 9.6c6.4 16 12.8 32 19.2 44.8v3.2c44.8-28.8 80-67.2 108.8-112-57.6-12.8-128-99.2-160-147.2v0zM934.4 268.8c0-3.2-3.2-9.6-6.4-12.8s-6.4-6.4-9.6-9.6c-9.6-3.2-22.4-3.2-35.2-3.2s-22.4 6.4-32 9.6c-22.4 9.6-80 35.2-112 48 48 60.8 96 102.4 124.8 112l60.8-112c9.6-9.6 9.6-19.2 9.6-32v0z" />
<glyph unicode="&#xe90e;" glyph-name="category-08" d="M512 851.2c-249.6 0-438.4-118.4-438.4-275.2 0-32 9.6-64 22.4-92.8 16-28.8 35.2-54.4 60.8-73.6v-336c3.2-9.6 3.2-16 9.6-22.4 3.2-3.2 9.6-6.4 19.2-6.4h656c6.4 0 12.8 3.2 19.2 6.4 3.2 6.4 3.2 12.8 3.2 19.2v336c25.6 19.2 44.8 44.8 60.8 73.6s22.4 60.8 22.4 92.8c3.2 160-185.6 278.4-435.2 278.4zM272 480c-48 28.8-73.6 60.8-73.6 96 0 83.2 144 150.4 313.6 150.4s313.6-70.4 313.6-150.4c0-35.2-25.6-67.2-73.6-96-3.2-3.2-6.4-6.4-9.6-9.6s-3.2-9.6-3.2-12.8v-361.6h-454.4v361.6c0 3.2 0 9.6-3.2 12.8s-6.4 6.4-9.6 9.6zM825.6 438.4c-3.2-3.2-6.4-6.4-6.4-9.6s-3.2-6.4-3.2-9.6v-323.2h-25.6v348.8c54.4 35.2 83.2 83.2 83.2 131.2 0 112-160 201.6-361.6 201.6-204.8 0-361.6-89.6-361.6-201.6 0-48 28.8-96 83.2-131.2v-348.8h-25.6v323.2c0 3.2 0 6.4-3.2 9.6 0 3.2-3.2 6.4-6.4 9.6-22.4 16-41.6 35.2-54.4 60.8-12.8 22.4-19.2 51.2-22.4 76.8 3.2 128 169.6 224 390.4 224s387.2-96 387.2-227.2c0-25.6-9.6-54.4-22.4-76.8s-28.8-41.6-51.2-57.6zM352 566.4c3.2 0 9.6 0 12.8 3.2s6.4 6.4 6.4 9.6c3.2 3.2 3.2 9.6 0 12.8 0 3.2-3.2 6.4-6.4 9.6s-6.4 6.4-9.6 6.4c-3.2 0-9.6 0-12.8 0-3.2-3.2-6.4-3.2-9.6-6.4s-3.2-6.4-3.2-12.8c0-3.2 0-6.4 3.2-9.6 0-3.2 3.2-6.4 3.2-6.4 3.2-3.2 3.2-3.2 6.4-3.2 3.2-3.2 6.4-3.2 9.6-3.2zM393.6 403.2c3.2 0 9.6 0 12.8 3.2s6.4 6.4 6.4 9.6 3.2 9.6 0 12.8c0 3.2-3.2 6.4-6.4 9.6s-6.4 6.4-9.6 6.4c-3.2 0-9.6 0-12.8 0-3.2-3.2-6.4-3.2-9.6-6.4s-3.2-6.4-3.2-12.8c0-6.4 3.2-9.6 6.4-16s9.6-6.4 16-6.4zM537.6 595.2c3.2 0 9.6 0 12.8 3.2s6.4 6.4 6.4 9.6c3.2 3.2 3.2 9.6 0 12.8 0 3.2-3.2 6.4-6.4 9.6s-6.4 6.4-9.6 6.4c-3.2 0-9.6 0-12.8 0-3.2-3.2-6.4-3.2-9.6-6.4s-3.2-6.4-3.2-12.8c0-6.4 3.2-9.6 6.4-16 6.4-3.2 9.6-6.4 16-6.4zM534.4 390.4c0-3.2 0-9.6 3.2-12.8s6.4-6.4 9.6-6.4c3.2-3.2 9.6-3.2 12.8 0 3.2 0 6.4 3.2 9.6 6.4s6.4 6.4 6.4 9.6c0 3.2 0 9.6 0 12.8-3.2 3.2-3.2 6.4-9.6 9.6-3.2 3.2-6.4 3.2-12.8 3.2-3.2 0-6.4 0-9.6-3.2-3.2 0-6.4-3.2-6.4-3.2-3.2-3.2-3.2-3.2-3.2-6.4s0-6.4 0-9.6zM438.4 224c3.2 0 9.6 0 12.8 3.2s6.4 6.4 9.6 9.6c3.2 3.2 3.2 9.6 0 12.8 0 3.2-3.2 9.6-6.4 9.6-3.2 3.2-6.4 6.4-9.6 6.4s-9.6 0-12.8 0c-3.2-3.2-6.4-3.2-9.6-6.4s-3.2-6.4-3.2-12.8c0-6.4 3.2-9.6 6.4-16 0-6.4 6.4-6.4 12.8-6.4zM646.4 230.4c3.2 0 9.6 0 12.8 3.2s6.4 6.4 6.4 9.6c3.2 3.2 3.2 9.6 0 12.8 0 3.2-3.2 6.4-6.4 9.6s-6.4 6.4-9.6 6.4c-3.2 0-9.6 0-12.8 0-3.2-3.2-6.4-3.2-9.6-9.6-3.2-3.2-3.2-6.4-3.2-12.8s3.2-9.6 6.4-16c3.2 0 9.6-3.2 16-3.2zM678.4 460.8c3.2 0 9.6 0 12.8 3.2s6.4 6.4 6.4 9.6c3.2 3.2 3.2 9.6 0 12.8 0 3.2-3.2 6.4-6.4 9.6s-6.4 6.4-9.6 6.4c-3.2 0-9.6 0-12.8 0-3.2-3.2-6.4-3.2-9.6-6.4s-3.2-6.4-3.2-12.8c0-6.4 3.2-9.6 6.4-16 3.2-3.2 9.6-6.4 16-6.4z" />
<glyph unicode="&#xe90f;" glyph-name="category-09" d="M803.2 156.8c-25.6-25.6-57.6-38.4-92.8-38.4h-496c-35.2 0-67.2 12.8-92.8 38.4s-38.4 57.6-38.4 92.8v496c0 35.2 12.8 67.2 38.4 92.8s57.6 38.4 92.8 38.4h496c35.2 0 67.2-12.8 92.8-38.4s38.4-57.6 38.4-92.8v-496c0-35.2-12.8-67.2-38.4-92.8zM496 182.4h214.4c16 0 32 6.4 44.8 19.2s19.2 28.8 19.2 44.8v217.6h-217.6l9.6-9.6c9.6-9.6 22.4-16 38.4-22.4 12.8-3.2 28.8-3.2 41.6 0 9.6 3.2 16 0 25.6-3.2 6.4-3.2 12.8-9.6 16-19.2 3.2-6.4 3.2-16-3.2-25.6-3.2-6.4-9.6-12.8-19.2-16-25.6-9.6-51.2-9.6-76.8-3.2s-48 19.2-67.2 38.4l-25.6 25.6v-246.4zM339.2 656c-9.6 0-19.2-3.2-25.6-9.6s-9.6-16-9.6-25.6c0-9.6 3.2-19.2 9.6-25.6 19.2-9.6 41.6-16 64-16 0 22.4-6.4 44.8-16 64-3.2 6.4-12.8 12.8-22.4 12.8zM560 643.2c-9.6-19.2-16-41.6-16-64v0c22.4 0 44.8 6.4 64 16 3.2 3.2 6.4 6.4 6.4 12.8s3.2 9.6 3.2 12.8c0 3.2 0 9.6-3.2 12.8s-3.2 9.6-6.4 12.8c-6.4 6.4-16 9.6-25.6 9.6-3.2 0-9.6 0-12.8-3.2s-6.4-6.4-9.6-9.6zM777.6 531.2v214.4c0 9.6 0 16-3.2 25.6s-6.4 16-12.8 22.4c-6.4 6.4-12.8 9.6-22.4 12.8-6.4 3.2-16 6.4-25.6 6.4h-214.4v-147.2c3.2 9.6 9.6 19.2 19.2 28.8 19.2 19.2 44.8 28.8 70.4 28.8s51.2-9.6 70.4-28.8c9.6-9.6 16-19.2 22.4-32s6.4-25.6 6.4-38.4c0-12.8-3.2-25.6-6.4-38.4-6.4-12.8-12.8-22.4-22.4-32s-19.2-16-32-19.2h150.4zM432 809.6h-217.6c-16 0-32-6.4-44.8-19.2s-19.2-28.8-19.2-44.8v-214.4h150.4c-12.8 3.2-22.4 9.6-32 19.2s-16 19.2-22.4 32c-6.4 12.8-6.4 25.6-6.4 38.4s3.2 25.6 6.4 38.4c6.4 12.8 12.8 22.4 22.4 32 19.2 16 44.8 25.6 70.4 25.6s51.2-9.6 70.4-28.8c9.6-9.6 16-19.2 19.2-32v153.6zM150.4 464v-217.6c0-16 6.4-32 19.2-44.8s28.8-19.2 44.8-19.2h214.4v252.8l-25.6-25.6c-12.8-12.8-28.8-22.4-44.8-32-16-6.4-35.2-9.6-54.4-9.6-16 0-28.8 3.2-44.8 6.4-3.2 0-9.6 3.2-12.8 6.4s-6.4 6.4-9.6 9.6c-3.2 3.2-3.2 9.6-3.2 12.8s0 9.6 0 12.8c0 3.2 3.2 6.4 6.4 12.8 3.2 3.2 6.4 6.4 9.6 6.4 3.2 3.2 9.6 3.2 12.8 3.2s9.6 0 12.8-3.2c12.8-3.2 28.8-6.4 41.6 0 12.8 3.2 25.6 9.6 38.4 22.4l9.6 9.6h-214.4zM860.8 684.8v80c22.4-9.6 41.6-25.6 57.6-48 12.8-22.4 22.4-44.8 22.4-70.4v-496c0-35.2-12.8-67.2-38.4-92.8s-57.6-38.4-92.8-38.4h-496c-25.6 0-51.2 6.4-70.4 22.4-22.4 12.8-38.4 35.2-48 57.6h76.8c12.8-9.6 25.6-16 41.6-16h496c16 0 32 6.4 44.8 19.2s19.2 28.8 19.2 44.8v499.2c0 16-6.4 28.8-12.8 38.4z" />
<glyph unicode="&#xe910;" glyph-name="category-10" d="M512 624l86.4 67.2c3.2 3.2 6.4 3.2 12.8 3.2 3.2 0 9.6 0 12.8-3.2s6.4-6.4 9.6-9.6c3.2-3.2 3.2-9.6 3.2-12.8l-3.2-105.6c0-3.2 0-6.4-3.2-9.6s-3.2-6.4-6.4-6.4c-6.4-3.2-9.6-3.2-12.8-3.2s-6.4 0-9.6 0l-60.8 22.4c19.2-19.2 38.4-44.8 35.2-51.2s-9.6-12.8-16-19.2c-6.4-3.2-16-6.4-22.4-3.2-9.6 25.6-19.2 54.4-19.2 86.4h-6.4c-3.2-28.8-9.6-57.6-19.2-86.4-6.4 0-16 0-22.4 3.2s-12.8 9.6-16 19.2c0 9.6 16 32 35.2 51.2l-64-22.4c-3.2 0-6.4-3.2-9.6 0-3.2 0-6.4 3.2-9.6 3.2-3.2 3.2-6.4 3.2-6.4 6.4-3.2 3.2-3.2 6.4-3.2 9.6l-3.2 105.6c0 3.2 0 9.6 3.2 12.8s6.4 6.4 9.6 9.6c3.2 3.2 6.4 3.2 12.8 3.2 3.2 0 9.6-3.2 12.8-3.2l80-67.2zM768 544c57.6-80 105.6-169.6 147.2-259.2 9.6-25.6 12.8-51.2 9.6-76.8s-9.6-51.2-22.4-73.6c-16-28.8-35.2-51.2-60.8-70.4s-54.4-32-83.2-38.4c-163.2-35.2-329.6-35.2-492.8 0-32 6.4-57.6 19.2-83.2 38.4s-44.8 44.8-60.8 70.4c-12.8 22.4-19.2 48-22.4 73.6s3.2 51.2 9.6 76.8c41.6 89.6 89.6 176 147.2 259.2 9.6 22.4 9.6 48 3.2 73.6-22.4 38.4-41.6 83.2-51.2 128-6.4 16-6.4 38.4-6.4 57.6 3.2 22.4 12.8 41.6 22.4 60.8 9.6 12.8 22.4 22.4 35.2 28.8 16 6.4 28.8 9.6 44.8 9.6 6.4 0 12.8 0 19.2-3.2 28.8-9.6 54.4-28.8 70.4-54.4l3.2-6.4 6.4 3.2c28.8 28.8 67.2 44.8 105.6 44.8s76.8-16 105.6-44.8l6.4-3.2 3.2 6.4c16 25.6 41.6 48 70.4 54.4 6.4 3.2 12.8 3.2 19.2 3.2 16 0 32-3.2 44.8-9.6 19.2-6.4 32-16 41.6-28.8 12.8-16 19.2-38.4 22.4-57.6 3.2-22.4 0-41.6-6.4-60.8-12.8-44.8-28.8-86.4-54.4-128-6.4-25.6-3.2-51.2 6.4-73.6zM800 118.4c16 12.8 32 28.8 41.6 48 9.6 12.8 12.8 28.8 16 44.8s0 32-6.4 48c-28.8 70.4-64 134.4-108.8 198.4-19.2 35.2-28.8 76.8-25.6 118.4h-6.4c-3.2 0-6.4 0-9.6 0l-12.8 3.2c-3.2 0-9.6 3.2-12.8 6.4s-6.4 6.4-9.6 9.6c-3.2 3.2-3.2 9.6-6.4 12.8 0 6.4 0 9.6 0 16s3.2 9.6 6.4 12.8c3.2 3.2 6.4 6.4 12.8 9.6 3.2 3.2 9.6 3.2 12.8 3.2 6.4 0 9.6 0 12.8-3.2l12.8-3.2c6.4 35.2 12.8 67.2 22.4 99.2 0 3.2 0 3.2 3.2 6.4 3.2 6.4 3.2 9.6 3.2 12.8 3.2 9.6 6.4 19.2 3.2 28.8 0 9.6-3.2 19.2-6.4 28.8 0 6.4-3.2 9.6-6.4 12.8-3.2 0-9.6 3.2-12.8 0-9.6-3.2-19.2-9.6-25.6-16s-12.8-16-16-28.8c-9.6-19.2-12.8-32-28.8-35.2h-3.2c-22.4 3.2-41.6 12.8-60.8 28.8l-3.2 3.2c-19.2 16-44.8 28.8-70.4 32-25.6-3.2-51.2-16-70.4-32l-3.2-3.2c-16-16-38.4-25.6-60.8-28.8h-3.2c-16 3.2-22.4 12.8-28.8 32-3.2 9.6-6.4 19.2-12.8 28.8-9.6 9.6-19.2 16-28.8 19.2v0c-6.4 0-9.6 0-16 0-3.2-3.2-6.4-6.4-9.6-9.6-3.2-9.6-6.4-19.2-6.4-28.8s0-19.2 3.2-28.8c0-6.4 3.2-12.8 6.4-22.4 9.6-32 19.2-64 22.4-96 6.4 3.2 12.8 3.2 19.2 0l12.8-3.2c3.2 0 9.6-3.2 12.8-6.4s6.4-6.4 9.6-9.6c3.2-3.2 3.2-9.6 3.2-12.8s0-9.6 0-12.8c-3.2-6.4-6.4-16-12.8-19.2-6.4-6.4-12.8-6.4-22.4-6.4-3.2 0-6.4 0-9.6 0h-6.4c3.2-41.6-6.4-80-25.6-115.2-44.8-64-80-131.2-112-201.6-6.4-16-6.4-28.8-6.4-44.8s6.4-32 12.8-44.8c9.6-22.4 25.6-38.4 41.6-51.2s35.2-19.2 57.6-25.6c153.6-35.2 310.4-35.2 464 0 19.2 6.4 38.4 12.8 54.4 25.6z" />
<glyph unicode="&#xe911;" glyph-name="category-11" d="M681.6 777.6c6.4 0 16 3.2 22.4 9.6s9.6 12.8 9.6 22.4v70.4c0 6.4-3.2 16-9.6 22.4s-12.8 9.6-22.4 9.6-16-3.2-22.4-9.6c-6.4-6.4-9.6-12.8-9.6-22.4v-73.6c0-6.4 3.2-16 9.6-22.4 6.4-3.2 16-6.4 22.4-6.4zM819.2 867.2c6.4 0 16-3.2 22.4-9.6 3.2-3.2 6.4-6.4 6.4-9.6s3.2-6.4 3.2-12.8c0-3.2 0-6.4-3.2-12.8 0-3.2-3.2-6.4-6.4-9.6l-51.2-51.2c-3.2-3.2-6.4-6.4-9.6-6.4s-6.4-3.2-12.8-3.2c-3.2 0-6.4 0-12.8 3.2-3.2 0-6.4 3.2-9.6 6.4s-6.4 6.4-6.4 9.6c0 3.2-3.2 6.4-3.2 12.8 0 3.2 0 6.4 3.2 12.8 0 3.2 3.2 6.4 6.4 9.6l51.2 51.2c6.4 6.4 12.8 9.6 22.4 9.6zM649.6 723.2c12.8 6.4 28.8 9.6 44.8 9.6v0c22.4 0 44.8-6.4 64-19.2s32-28.8 41.6-51.2c9.6-19.2 9.6-44.8 6.4-64-3.2-22.4-16-41.6-32-57.6l-86.4-86.4 64-208c9.6-32 6.4-64-6.4-92.8s-35.2-54.4-60.8-67.2l-121.6-73.6c-25.6-16-54.4-22.4-83.2-22.4-22.4 0-41.6 3.2-60.8 12.8-19.2 6.4-38.4 19.2-51.2 35.2l-156.8 156.8c-19.2 19.2-32 41.6-35.2 67.2s-3.2 51.2 9.6 76.8l124.8 281.6c9.6 19.2 25.6 38.4 44.8 51.2s41.6 19.2 64 19.2 44.8-6.4 64-19.2c19.2-12.8 35.2-28.8 44.8-51.2l86.4 86.4c9.6 0 22.4 9.6 35.2 16zM620.8 470.4l112 112c9.6 9.6 16 22.4 16 35.2s-3.2 25.6-12.8 38.4c-6.4 6.4-9.6 9.6-16 12.8s-12.8 3.2-19.2 3.2c-6.4 0-12.8 0-19.2-3.2s-12.8-6.4-16-12.8l-185.6-179.2v86.4c0 12.8-3.2 25.6-12.8 35.2s-19.2 16-32 19.2c-12.8 3.2-25.6 0-38.4-6.4s-22.4-16-25.6-28.8l-124.8-281.6c-6.4-12.8-6.4-25.6-6.4-41.6s9.6-25.6 19.2-35.2l153.6-153.6c16-16 35.2-25.6 57.6-28.8s44.8 3.2 64 12.8l121.6 73.6c12.8 6.4 25.6 16 32 28.8s9.6 28.8 9.6 41.6l-60.8-19.2c-3.2 0-6.4 0-9.6 0-6.4 0-12.8 0-19.2 6.4-6.4 3.2-9.6 9.6-12.8 16 0 3.2-3.2 6.4 0 12.8 0 3.2 0 6.4 3.2 12.8 3.2 3.2 3.2 6.4 6.4 9.6s6.4 3.2 9.6 6.4l64 19.2-6.4 16-60.8-19.2c-3.2 0-6.4 0-9.6 0-6.4 0-16 0-22.4 6.4-6.4 3.2-9.6 12.8-12.8 19.2 0 6.4 0 16 6.4 22.4 3.2 6.4 12.8 9.6 19.2 12.8l60.8 19.2-6.4 19.2-60.8-19.2c-3.2 0-6.4 0-9.6 0s-6.4 0-12.8 0c-3.2 0-6.4 3.2-9.6 6.4s-6.4 6.4-9.6 9.6c-3.2 3.2-3.2 6.4-3.2 9.6s0 6.4 0 12.8c0 3.2 3.2 6.4 6.4 9.6s6.4 6.4 9.6 6.4c3.2 3.2 6.4 3.2 9.6 3.2l60.8 19.2-6.4 54.4zM595.2 736c-3.2 0-6.4 3.2-9.6 6.4l-51.2 51.2c-3.2 3.2-6.4 6.4-6.4 9.6-3.2 3.2-3.2 6.4-3.2 12.8 0 3.2 0 9.6 3.2 12.8 0 3.2 3.2 6.4 6.4 9.6s6.4 6.4 9.6 6.4c3.2 0 6.4 3.2 12.8 3.2 3.2 0 9.6 0 12.8-3.2s6.4-3.2 9.6-6.4l51.2-51.2c3.2-3.2 6.4-6.4 6.4-9.6s3.2-6.4 3.2-12.8c0-3.2 0-6.4-3.2-12.8s-3.2-6.4-6.4-9.6-9.6-6.4-12.8-6.4c-3.2 0-6.4-3.2-12.8-3.2-3.2 0-6.4 3.2-9.6 3.2z" />
<glyph unicode="&#xe912;" glyph-name="category-12" d="M579.2 592c-3.2 9.6-9.6 19.2-16 25.6-9.6 6.4-19.2 9.6-28.8 9.6s-19.2-3.2-28.8-9.6c-6.4-6.4-12.8-16-16-25.6s-6.4-22.4-6.4-32c0-9.6 0-22.4 0-28.8 0-9.6 0-19.2 0-28.8s3.2-22.4 6.4-32c3.2-9.6 9.6-19.2 16-25.6 9.6-6.4 19.2-9.6 28.8-9.6s19.2 3.2 28.8 9.6c6.4 6.4 12.8 16 16 25.6s6.4 22.4 6.4 32c0 9.6 0 22.4 0 28.8 0 9.6 0 19.2 0 28.8s-3.2 19.2-6.4 32zM796.8 412.8c6.4 0 16 9.6 16 25.6 0 12.8-6.4 25.6-16 25.6-6.4 0-16-9.6-16-25.6 3.2-16 9.6-25.6 16-25.6zM512 892.8c-86.4 0-172.8-25.6-246.4-73.6-73.6-51.2-131.2-121.6-163.2-201.6s-41.6-169.6-25.6-256c16-86.4 60.8-166.4 121.6-227.2s140.8-105.6 227.2-121.6c86.4-16 176-9.6 256 25.6 80 32 150.4 89.6 198.4 163.2s73.6 160 73.6 246.4c0 118.4-48 230.4-131.2 313.6-80 83.2-192 131.2-310.4 131.2zM780.8 563.2h19.2c0 0 0 0 3.2 0 0 0 0 0 0 0s0 0 0-3.2c0 0 0 0 0-3.2l-83.2-160c0 0 0 0 0 0s0 0 0 0h-16c0 0 0 0-3.2 0 0 0 0 0 0 0s0 0 0 3.2c0 0 0 0 0 3.2l80 160c-3.2 0-3.2 0 0 0v0zM665.6 556.8c6.4 6.4 9.6 9.6 16 12.8 9.6 3.2 19.2 3.2 28.8 0 6.4-3.2 12.8-6.4 16-12.8 6.4-12.8 9.6-25.6 9.6-38.4s-3.2-22.4-12.8-32c-9.6-6.4-19.2-12.8-32-12.8s-22.4 3.2-32 12.8c-6.4 9.6-12.8 22.4-9.6 32 6.4 12.8 9.6 25.6 16 38.4v0zM227.2 406.4c-3.2 0-3.2 0 0 0-3.2 3.2-3.2 3.2-3.2 3.2v32c0 0 0 3.2 0 3.2 0 3.2 0 3.2 0 3.2s3.2 0 3.2 0c0 0 3.2 0 3.2 0 9.6-3.2 19.2-6.4 28.8-9.6s19.2-3.2 25.6-3.2c38.4 0 57.6 16 57.6 51.2 0 28.8-12.8 41.6-41.6 41.6-12.8 0-25.6-3.2-35.2-12.8h-35.2c0 0 0 0-3.2 0 0 0 0 0-3.2 0 0 0 0 0 0 3.2 0 0 0 0 0 3.2l6.4 134.4c0 0 0 0 0 3.2 0 0 0 0 0 3.2 0 0 0 0 3.2 0 0 0 0 0 3.2 0h144c3.2 0 6.4-3.2 6.4-6.4v-28.8c0 0 0 0 0-3.2 0 0 0 0 0-3.2 0 0 0 0-3.2 0 0 0 0 0-3.2 0h-105.6l-3.2-60.8c12.8 6.4 25.6 9.6 38.4 9.6 9.6 0 22.4 0 32-3.2s19.2-9.6 28.8-16c6.4-9.6 12.8-19.2 16-28.8s6.4-22.4 3.2-32c0-60.8-35.2-92.8-105.6-92.8-19.2-3.2-38.4 0-57.6 9.6v0zM454.4 204.8c-3.2-9.6-6.4-19.2-12.8-28.8-6.4-6.4-16-12.8-22.4-19.2-9.6-3.2-22.4-6.4-32-6.4-12.8 0-22.4 3.2-32 6.4s-16 9.6-22.4 19.2c-6.4 9.6-9.6 16-12.8 28.8-6.4 22.4-6.4 44.8 0 67.2 3.2 9.6 6.4 19.2 12.8 28.8 6.4 6.4 16 12.8 22.4 19.2 9.6 3.2 22.4 6.4 32 6.4 12.8 0 22.4-3.2 32-6.4s16-9.6 22.4-19.2c6.4-9.6 12.8-16 12.8-28.8 6.4-22.4 6.4-44.8 0-67.2zM588.8 300.8c0-3.2 0-3.2-3.2-3.2h-67.2v-44.8h60.8c0 0 0 0 0 0s0 0 0 0 0 0 0 0 0 0 0 0v-19.2c0 0 0 0 0 0s0 0 0 0 0 0 0 0 0 0 0 0h-60.8v-73.6c0-3.2 0-3.2-3.2-3.2h-25.6c-3.2 0-3.2 0-3.2 3.2v160c0 3.2 0 3.2 3.2 3.2h96c0 0 0 0 0 0s0 0 0 0 0 0 0 0 0 0 0 0l3.2-22.4zM588.8 406.4c-16-9.6-32-12.8-51.2-9.6-19.2 0-35.2 3.2-51.2 9.6-12.8 6.4-25.6 16-32 28.8s-12.8 28.8-16 44.8c-3.2 16-3.2 35.2-3.2 51.2s0 35.2 3.2 51.2c3.2 16 6.4 28.8 16 44.8 9.6 12.8 19.2 22.4 32 28.8 16 9.6 32 12.8 51.2 12.8s35.2-3.2 51.2-12.8c12.8-6.4 22.4-16 32-28.8 6.4-12.8 12.8-28.8 16-44.8s3.2-35.2 3.2-51.2c0-16 0-35.2-3.2-51.2s-6.4-28.8-16-41.6c-9.6-16-19.2-25.6-32-32v0zM723.2 300.8c0-3.2 0-3.2-3.2-3.2h-67.2v-44.8h60.8c3.2 0 3.2 0 3.2-3.2v-19.2c0-3.2 0-3.2-3.2-3.2h-60.8v-67.2c0 0 0 0 0 0s0 0 0 0 0 0 0 0 0 0 0 0h-25.6c-3.2 0-3.2 0-3.2 3.2v160c0 3.2 0 3.2 3.2 3.2h96c0 0 0 0 0 0s0 0 0 0 0 0 0 0 0 0 0 0v-25.6zM796.8 393.6c-6.4 0-12.8 0-19.2 3.2s-9.6 6.4-16 9.6c-6.4 9.6-12.8 22.4-9.6 32 0 12.8 3.2 25.6 12.8 38.4 3.2 6.4 9.6 9.6 16 9.6 6.4 3.2 12.8 3.2 19.2 3.2s12.8 0 19.2-3.2c6.4-3.2 9.6-6.4 12.8-12.8 6.4-9.6 9.6-22.4 9.6-35.2s-3.2-22.4-9.6-32c-3.2-3.2-9.6-6.4-12.8-9.6-9.6-3.2-16-3.2-22.4-3.2v0zM697.6 492.8c9.6 0 16 9.6 16 25.6s-6.4 25.6-16 25.6c-9.6 0-12.8-9.6-12.8-25.6s3.2-25.6 12.8-25.6zM419.2 278.4c-3.2 6.4-6.4 9.6-12.8 12.8s-12.8 6.4-22.4 6.4c-6.4 0-16 0-22.4-6.4-6.4-3.2-9.6-6.4-12.8-12.8s-6.4-12.8-6.4-19.2c0-6.4-3.2-16-3.2-22.4s0-16 3.2-22.4c0-6.4 3.2-12.8 6.4-19.2s6.4-9.6 12.8-12.8c6.4-3.2 12.8-6.4 22.4-6.4 6.4 0 16 0 22.4 6.4 6.4 3.2 9.6 6.4 12.8 12.8s6.4 12.8 6.4 19.2c0 6.4 3.2 16 3.2 22.4s0 16-3.2 22.4c0 9.6-3.2 16-6.4 19.2z" />
<glyph unicode="&#xe913;" glyph-name="star-outline" d="M739.2 9.6c-16 0-28.8 3.2-41.6 9.6l-172.8 89.6c-6.4 3.2-16 3.2-22.4 0l-172.8-89.6c-16-6.4-32-12.8-48-9.6-16 0-32 6.4-48 16-12.8 9.6-25.6 22.4-32 38.4s-9.6 32-6.4 48l32 192c0 3.2 0 9.6 0 12.8s-3.2 6.4-6.4 9.6l-140.8 137.6c-12.8 12.8-19.2 25.6-25.6 41.6s-3.2 32 3.2 48c6.4 22.4 16 35.2 28.8 44.8s28.8 19.2 44.8 19.2l192 28.8c3.2 0 6.4 3.2 9.6 3.2 3.2 3.2 6.4 6.4 6.4 9.6l86.4 176c6.4 16 19.2 28.8 32 38.4 28.8 19.2 67.2 19.2 96 0 12.8-9.6 25.6-22.4 32-38.4l86.4-176c3.2-3.2 3.2-6.4 6.4-9.6s6.4-3.2 9.6-3.2l192-28.8c16-3.2 32-9.6 44.8-19.2s22.4-25.6 28.8-41.6c6.4-16 6.4-32 3.2-51.2-3.2-16-12.8-32-25.6-41.6l-140.8-137.6c-3.2-3.2-6.4-6.4-6.4-9.6s0-6.4 0-12.8l32-192c3.2-16 0-35.2-6.4-48-6.4-16-16-28.8-32-38.4-12.8-9.6-28.8-16-48-16 12.8 0 12.8 0 9.6 0zM512 179.2c16 0 28.8-3.2 41.6-9.6l172.8-89.6c3.2-3.2 9.6-3.2 12.8-3.2s9.6 3.2 12.8 3.2c3.2 3.2 6.4 6.4 9.6 9.6s3.2 9.6 0 12.8l-32 192c-3.2 12.8 0 28.8 3.2 41.6s12.8 25.6 22.4 38.4l140.8 137.6c3.2 3.2 6.4 6.4 6.4 12.8 0 3.2 0 9.6 0 12.8s-3.2 9.6-6.4 12.8c-3.2 3.2-6.4 6.4-12.8 6.4l-195.2 28.8c-16 3.2-28.8 6.4-41.6 16s-22.4 19.2-28.8 32l-86.4 176c-3.2 3.2-6.4 6.4-9.6 9.6-9.6 6.4-19.2 6.4-25.6 0-3.2-3.2-6.4-6.4-9.6-9.6l-86.4-176c-6.4-12.8-16-25.6-28.8-32-12.8-9.6-25.6-12.8-38.4-16l-195.2-28.8c-3.2 0-9.6-3.2-12.8-6.4s-6.4-6.4-6.4-12.8c0-3.2 0-9.6 0-12.8s3.2-9.6 6.4-12.8l140.8-137.6c9.6-9.6 19.2-22.4 22.4-35.2s6.4-28.8 3.2-44.8l-32-192c0-3.2 0-9.6 0-12.8 3.2-3.2 3.2-9.6 9.6-9.6 3.2-3.2 9.6-3.2 12.8-3.2 6.4 0 9.6 0 12.8 3.2l172.8 89.6c16 6.4 28.8 9.6 44.8 9.6z" />
<glyph unicode="&#xe914;" glyph-name="file-edit" d="M496 588.8h249.6c12.8 0 22.4 3.2 28.8 12.8 9.6 9.6 12.8 19.2 12.8 28.8 0 12.8-3.2 22.4-12.8 28.8-6.4 12.8-19.2 16-28.8 16h-249.6c-12.8 0-22.4-3.2-28.8-12.8-9.6-9.6-12.8-19.2-12.8-28.8 0-12.8 3.2-22.4 12.8-28.8 6.4-9.6 16-16 28.8-16zM496 425.6h249.6c12.8 0 22.4 3.2 28.8 12.8s12.8 19.2 12.8 28.8c0 12.8-3.2 22.4-12.8 28.8-9.6 9.6-19.2 12.8-28.8 12.8h-249.6c-12.8 0-22.4-3.2-28.8-12.8-9.6-9.6-12.8-19.2-12.8-28.8 0-12.8 3.2-22.4 12.8-28.8 6.4-9.6 16-12.8 28.8-12.8zM496 259.2h249.6c12.8 0 22.4 3.2 28.8 12.8 9.6 9.6 12.8 19.2 12.8 28.8s-3.2 22.4-12.8 28.8-19.2 12.8-28.8 12.8h-249.6c-12.8 0-22.4-3.2-28.8-12.8-9.6-9.6-12.8-19.2-12.8-28.8 0-12.8 3.2-22.4 12.8-28.8 6.4-6.4 16-12.8 28.8-12.8zM905.6 835.2h-582.4c-12.8 0-22.4-3.2-28.8-12.8-9.6-9.6-12.8-19.2-12.8-32v-128l86.4-147.2v233.6h496v-601.6h-499.2v41.6l-38.4 38.4c-16 16-32 35.2-48 54.4v-172.8c0-12.8 3.2-22.4 12.8-28.8 9.6-9.6 19.2-12.8 28.8-12.8h582.4c12.8 0 22.4 3.2 28.8 12.8 9.6 9.6 12.8 19.2 12.8 28.8v681.6c0 12.8-3.2 22.4-12.8 28.8-3.2 9.6-12.8 16-25.6 16zM403.2 230.4c0 0 3.2-3.2 6.4-3.2s3.2 0 6.4 0 3.2 3.2 3.2 3.2 0 3.2 0 6.4l-12.8 51.2c-12.8 51.2-35.2 99.2-60.8 147.2l-16 28.8-179.2 307.2c-3.2 3.2-6.4 6.4-9.6 6.4s-6.4 0-9.6 0l-51.2-28.8c-3.2 0-3.2-3.2-3.2-3.2s-3.2-3.2-3.2-6.4c0-3.2 0-3.2 0-6.4s0-3.2 3.2-6.4l179.2-307.2 16-28.8c25.6-44.8 57.6-86.4 96-124.8l35.2-35.2z" />
<glyph unicode="&#xe915;" glyph-name="home" d="M902.4 489.6c0 3.2 0 6.4 0 9.6l-57.6 201.6c-3.2 9.6-9.6 16-16 22.4s-16 9.6-25.6 9.6h-326.4v57.6c9.6 0 19.2 6.4 25.6 12.8s9.6 19.2 9.6 28.8c0 12.8-3.2 22.4-12.8 32s-19.2 12.8-32 12.8h-227.2c-12.8 0-22.4-3.2-32-12.8s-12.8-19.2-12.8-32c0-9.6 3.2-19.2 9.6-28.8 9.6-6.4 19.2-9.6 28.8-12.8v-57.6h-9.6c-9.6 0-19.2-3.2-25.6-9.6-9.6-3.2-16-12.8-16-22.4l-57.6-201.6c0-3.2-3.2-6.4-3.2-9.6 0-28.8 9.6-57.6 28.8-80v-345.6c0-12.8 3.2-22.4 12.8-32s19.2-12.8 32-12.8h636.8c12.8 0 22.4 3.2 32 12.8s12.8 19.2 12.8 32v345.6c16 22.4 25.6 51.2 25.6 80zM816 486.4c0 0 0 0 0 0 0-6.4-3.2-9.6-3.2-16v-3.2c-3.2-3.2-6.4-6.4-9.6-9.6s-6.4-6.4-12.8-6.4c-3.2-3.2-9.6-3.2-16-3.2-12.8 0-22.4 3.2-32 12.8s-12.8 19.2-12.8 32c0 3.2 0 3.2 0 6.4l-22.4 153.6h60.8l48-166.4zM598.4 444.8c-12.8 0-22.4 3.2-32 12.8s-12.8 19.2-12.8 32v160h64l22.4-160c0-12.8-6.4-22.4-12.8-28.8-6.4-9.6-16-16-28.8-16v0zM406.4 649.6h64v-160c0-12.8-3.2-22.4-12.8-32s-19.2-12.8-32-12.8c-9.6 0-22.4 3.2-28.8 12.8-9.6 6.4-12.8 19.2-12.8 28.8l22.4 163.2zM320 793.6h70.4v-57.6h-70.4v57.6zM256 649.6h60.8l-22.4-153.6c0 0 0-3.2 0-3.2s0-3.2 0-3.2c0-12.8-3.2-22.4-12.8-32s-19.2-12.8-32-12.8c-6.4 0-9.6 0-16 3.2-3.2 3.2-9.6 3.2-12.8 6.4s-6.4 6.4-9.6 9.6v3.2c-3.2 3.2-3.2 9.6-3.2 12.8 0 0 0 0 0 3.2l48 166.4zM569.6 105.6h-115.2v147.2h115.2v-147.2zM656 105.6v188.8c0 12.8-3.2 22.4-12.8 32s-19.2 12.8-32 12.8h-201.6c-12.8 0-22.4-3.2-32-12.8s-12.8-19.2-12.8-32v-188.8h-128v256c6.4 0 9.6 0 16 0 32 0 64 12.8 86.4 32 22.4-22.4 54.4-32 86.4-32s64 12.8 86.4 32c3.2-3.2 6.4-3.2 9.6-6.4s6.4-3.2 9.6-6.4c3.2-3.2 9.6-6.4 12.8-6.4l9.6-3.2c6.4-3.2 9.6-3.2 16-6.4l9.6-3.2c9.6-3.2 16-3.2 25.6-3.2 32 0 64 12.8 86.4 32 3.2-3.2 6.4-3.2 9.6-6.4l9.6-6.4c3.2-3.2 9.6-3.2 12.8-6.4 3.2 0 6.4-3.2 9.6-3.2 6.4-3.2 9.6-3.2 16-6.4 3.2 0 6.4 0 9.6-3.2 9.6-3.2 16-3.2 25.6-3.2 3.2 0 6.4 0 9.6 0h6.4v-256h-144z" />
<glyph unicode="&#xe916;" glyph-name="login" d="M934.4 880h-406.4c-16 0-28.8-3.2-41.6-9.6s-25.6-12.8-35.2-22.4c-9.6-9.6-19.2-22.4-22.4-35.2-6.4-12.8-9.6-28.8-9.6-41.6v-99.2c0-3.2 0-6.4 3.2-9.6 0-3.2 3.2-6.4 6.4-6.4 3.2-3.2 6.4-3.2 6.4-6.4 3.2 0 6.4-3.2 9.6-3.2 6.4 0 12.8 3.2 16 6.4s6.4 9.6 6.4 16v99.2c0 9.6 0 16 3.2 22.4 6.4 9.6 9.6 16 16 22.4s12.8 9.6 19.2 12.8c6.4 3.2 16 6.4 22.4 6.4h278.4l-134.4-54.4c-19.2-9.6-38.4-22.4-51.2-41.6s-19.2-38.4-19.2-60.8v-528h-73.6c-9.6 0-16 0-22.4 3.2s-12.8 6.4-19.2 12.8c-6.4 6.4-9.6 12.8-12.8 19.2s-3.2 16-3.2 22.4v99.2c0 6.4-3.2 12.8-6.4 16s-9.6 6.4-16 6.4c-3.2 0-6.4 0-9.6-3.2-3.2 0-6.4-3.2-6.4-6.4-3.2-3.2-3.2-6.4-6.4-6.4 0-3.2-3.2-6.4-3.2-9.6v-99.2c0-16 3.2-28.8 9.6-41.6s12.8-25.6 22.4-35.2c9.6-9.6 22.4-19.2 35.2-22.4 12.8-6.4 28.8-9.6 41.6-9.6h76.8c6.4-25.6 22.4-48 44.8-60.8 19.2-12.8 38.4-19.2 60.8-19.2 12.8 0 28.8 3.2 41.6 6.4l188.8 76.8h3.2c0 0 3.2 0 3.2 3.2 0 0 3.2 3.2 3.2 3.2s0 3.2 3.2 3.2v3.2c0 0 0 3.2 0 3.2v736c0 3.2 0 6.4 0 9.6s-3.2 6.4-3.2 9.6c-3.2 3.2-3.2 6.4-6.4 6.4-6.4 3.2-9.6 3.2-12.8 6.4zM358.4 534.4h-246.4c-12.8 0-22.4-3.2-28.8-12.8-9.6-9.6-12.8-19.2-12.8-28.8v-6.4c0-12.8 3.2-22.4 12.8-28.8 9.6-9.6 19.2-12.8 28.8-12.8h246.4l-89.6-92.8c-3.2-3.2-6.4-9.6-9.6-12.8 0-6.4-3.2-12.8-3.2-19.2s0-9.6 3.2-16c3.2-6.4 6.4-9.6 9.6-12.8s9.6-6.4 12.8-9.6c6.4-3.2 9.6-3.2 16-3.2s9.6 0 16 3.2c6.4 3.2 9.6 6.4 12.8 9.6l166.4 166.4c3.2 3.2 6.4 9.6 9.6 12.8 0 3.2 0 6.4 3.2 9.6 0 3.2 0 6.4 0 9.6s0 6.4 0 9.6c-3.2 9.6-6.4 16-12.8 22.4l-166.4 166.4c-9.6 6.4-19.2 12.8-28.8 12.8-9.6-3.2-19.2-6.4-28.8-16-3.2-3.2-6.4-9.6-9.6-12.8 0-6.4-3.2-12.8-3.2-16 0-6.4 0-12.8 3.2-16 3.2-6.4 6.4-9.6 9.6-12.8l89.6-92.8z" />
<glyph unicode="&#xe917;" glyph-name="account" d="M444.8 131.2c0 9.6 3.2 16 6.4 25.6 3.2 6.4 9.6 16 16 19.2l-28.8 16-57.6 28.8c-6.4 3.2-16 6.4-22.4 6.4-9.6 0-16-3.2-22.4-6.4s-12.8-9.6-19.2-16c-3.2-6.4-6.4-16-6.4-22.4v-118.4c0-9.6 3.2-16 6.4-22.4s9.6-12.8 19.2-16c6.4-3.2 16-6.4 22.4-6.4 9.6 0 16 3.2 22.4 6.4l57.6 28.8 28.8 16c-6.4 6.4-12.8 12.8-16 19.2s-6.4 16-6.4 25.6v16zM643.2 220.8l-57.6-28.8-28.8-16c6.4-6.4 12.8-12.8 16-19.2s6.4-16 6.4-25.6v-16c0-9.6-3.2-16-6.4-25.6-3.2-6.4-9.6-16-16-19.2l83.2-44.8c6.4-3.2 16-6.4 22.4-6.4 9.6 0 16 3.2 22.4 6.4s12.8 9.6 19.2 16 6.4 16 6.4 22.4v118.4c0 9.6-3.2 16-6.4 22.4s-9.6 12.8-19.2 16c-6.4 3.2-16 6.4-22.4 6.4-3.2 0-12.8-3.2-19.2-6.4zM521.6 169.6h-16c-22.4 0-41.6-19.2-41.6-41.6v-16c0-22.4 19.2-41.6 41.6-41.6h16c22.4 0 41.6 19.2 41.6 41.6v16c-3.2 25.6-19.2 41.6-41.6 41.6zM512 880c-83.2 0-166.4-35.2-224-92.8-60.8-60.8-96-144-96-227.2s35.2-166.4 92.8-224c60.8-60.8 140.8-92.8 224-92.8s166.4 35.2 224 92.8c60.8 60.8 92.8 140.8 92.8 224s-35.2 166.4-92.8 224c-54.4 60.8-137.6 96-220.8 96zM678.4 742.4c-124.8-28.8-185.6 22.4-217.6 60.8 16 3.2 35.2 6.4 51.2 6.4 60.8-3.2 121.6-25.6 166.4-67.2v0zM512 313.6c-64 0-128 25.6-172.8 73.6-44.8 44.8-73.6 108.8-73.6 172.8 0 44.8 12.8 86.4 35.2 124.8s54.4 70.4 92.8 89.6c22.4-35.2 54.4-64 92.8-86.4 38.4-16 80-25.6 121.6-25.6 38.4 0 80 6.4 118.4 19.2 22.4-35.2 32-76.8 32-121.6 0-32-6.4-64-19.2-96s-28.8-57.6-54.4-80c-22.4-22.4-51.2-41.6-80-54.4-28.8-9.6-60.8-16-92.8-16v0zM409.6 531.2c25.6 0 44.8 19.2 44.8 44.8s-19.2 44.8-44.8 44.8c-25.6 0-44.8-19.2-44.8-44.8s19.2-44.8 44.8-44.8zM614.4 531.2c25.6 0 44.8 19.2 44.8 44.8s-19.2 44.8-44.8 44.8c-25.6 0-44.8-19.2-44.8-44.8s22.4-44.8 44.8-44.8zM566.4 483.2c-16-9.6-35.2-16-54.4-16s-38.4 6.4-54.4 16c-6.4 6.4-16 6.4-25.6 6.4s-19.2-6.4-22.4-12.8c-6.4-6.4-6.4-16-6.4-25.6s6.4-19.2 12.8-22.4c28.8-19.2 64-32 96-28.8 35.2 0 70.4 9.6 96 28.8 6.4 6.4 12.8 12.8 12.8 22.4s0 19.2-6.4 25.6c-3.2 3.2-6.4 6.4-9.6 9.6s-9.6 3.2-12.8 6.4c-6.4 0-9.6 0-16 0 0-3.2-6.4-6.4-9.6-9.6z" />
<glyph unicode="&#xe918;" glyph-name="swap-vertical" d="M505.6 627.2c16-16 41.6-16 57.6 0s16 41.6 0 57.6l-176 179.2c-16 16-41.6 16-57.6 0v0l-179.2-179.2c-16-16-16-41.6 0-57.6s41.6-16 57.6 0l105.6 105.6v-284.8c0-22.4 19.2-41.6 41.6-41.6s41.6 19.2 41.6 41.6v284.8l108.8-105.6zM512 268.8c-16 16-41.6 16-57.6 0s-16-41.6 0-57.6l176-176c16-16 41.6-16 57.6 0v0l176 176c16 16 16 41.6 0 57.6s-41.6 16-57.6 0l-105.6-105.6v284.8c0 22.4-19.2 41.6-41.6 41.6s-41.6-19.2-41.6-41.6v-284.8l-105.6 105.6z" />
<glyph unicode="&#xe919;" glyph-name="file-plus" d="M390.4 230.4h-201.6v595.2h499.2v-297.6c0-6.4 3.2-12.8 6.4-19.2 6.4-6.4 12.8-6.4 19.2-6.4s12.8 3.2 19.2 6.4c6.4 6.4 6.4 12.8 6.4 19.2v323.2c0 6.4-3.2 12.8-6.4 19.2-6.4 6.4-12.8 6.4-19.2 6.4h-553.6c-6.4 0-12.8-3.2-19.2-6.4-3.2-3.2-6.4-12.8-6.4-19.2v-649.6c0-6.4 3.2-12.8 6.4-19.2 6.4-6.4 12.8-6.4 19.2-6.4h230.4c6.4 0 12.8 3.2 19.2 6.4 6.4 6.4 6.4 12.8 6.4 19.2s-3.2 12.8-6.4 19.2c-6.4 6.4-12.8 9.6-19.2 9.6zM560 726.4h-233.6c-6.4 0-12.8-3.2-19.2-6.4-6.4-6.4-9.6-12.8-9.6-19.2s3.2-12.8 6.4-19.2c6.4-6.4 12.8-9.6 19.2-9.6h233.6c6.4 0 12.8 3.2 19.2 6.4 6.4 6.4 6.4 12.8 6.4 19.2s-3.2 12.8-6.4 19.2c-3.2 6.4-9.6 9.6-16 9.6zM560 572.8h-233.6c-6.4 0-12.8-3.2-19.2-6.4-6.4-6.4-6.4-12.8-6.4-19.2s3.2-12.8 6.4-19.2c6.4-6.4 12.8-6.4 19.2-6.4h233.6c6.4 0 12.8 3.2 19.2 6.4 6.4 6.4 6.4 12.8 6.4 19.2s-3.2 12.8-6.4 19.2c-6.4 3.2-12.8 6.4-19.2 6.4zM560 416h-233.6c-6.4 0-12.8-3.2-19.2-6.4-6.4-6.4-6.4-12.8-6.4-19.2s3.2-12.8 6.4-19.2c6.4-6.4 12.8-6.4 19.2-6.4h233.6c6.4 0 12.8 3.2 19.2 6.4s6.4 12.8 6.4 19.2c0 6.4-3.2 12.8-6.4 19.2s-12.8 6.4-19.2 6.4zM864 233.6h-134.4v134.4c0 6.4-3.2 12.8-6.4 19.2-6.4 6.4-12.8 6.4-19.2 6.4s-12.8-3.2-19.2-6.4c-6.4-6.4-6.4-12.8-6.4-19.2v-134.4h-134.4c-6.4 0-12.8-3.2-19.2-6.4-6.4-6.4-6.4-12.8-6.4-19.2s3.2-12.8 6.4-19.2 12.8-6.4 19.2-6.4h134.4v-134.4c0-6.4 3.2-12.8 6.4-19.2s12.8-6.4 19.2-6.4c6.4 0 12.8 3.2 19.2 6.4 6.4 6.4 6.4 12.8 6.4 19.2v134.4h134.4c6.4 0 12.8 3.2 19.2 6.4 6.4 6.4 6.4 12.8 6.4 19.2s-3.2 12.8-6.4 19.2c-6.4 3.2-12.8 6.4-19.2 6.4z" />
<glyph unicode="&#xe91a;" glyph-name="fukidashi" d="M816 80c-54.4 0-105.6 16-147.2 44.8-51.2-16-102.4-22.4-156.8-22.4-246.4 0-448 160-448 355.2 0 198.4 201.6 358.4 448 358.4s448-160 448-355.2c0-48-12.8-96-35.2-137.6s-54.4-80-89.6-108.8l3.2-6.4c16-22.4 32-38.4 54.4-51.2 6.4-3.2 9.6-9.6 12.8-16s3.2-12.8 3.2-22.4c0-6.4-3.2-12.8-9.6-19.2s-12.8-9.6-19.2-9.6c-19.2-6.4-41.6-9.6-64-9.6zM675.2 204.8c9.6 0 16-3.2 22.4-6.4 25.6-19.2 54.4-32 83.2-38.4l-3.2 6.4c-9.6 12.8-16 25.6-22.4 41.6-3.2 6.4-3.2 16-3.2 25.6 3.2 9.6 6.4 16 16 19.2 35.2 22.4 64 51.2 86.4 89.6 22.4 35.2 32 76.8 35.2 118.4 0 156.8-166.4 281.6-374.4 281.6-204.8 0-374.4-124.8-374.4-281.6s166.4-281.6 374.4-281.6c51.2 0 102.4 9.6 150.4 25.6 0-3.2 3.2-3.2 9.6 0v0z" />
<glyph unicode="&#xe91b;" glyph-name="truck" d="M220.8 195.2c0-16 3.2-32 12.8-44.8s22.4-22.4 35.2-28.8c12.8-6.4 28.8-6.4 44.8-3.2s28.8 9.6 41.6 22.4c9.6 12.8 19.2 25.6 22.4 41.6s0 32-3.2 48c-6.4 16-16 28.8-28.8 35.2-12.8 9.6-28.8 12.8-44.8 12.8-19.2 0-41.6-9.6-54.4-22.4-16-19.2-25.6-38.4-25.6-60.8zM256 195.2c0 9.6 3.2 19.2 6.4 25.6 6.4 6.4 12.8 12.8 19.2 16 9.6 3.2 16 3.2 25.6 3.2 9.6-3.2 16-6.4 22.4-12.8s9.6-16 12.8-22.4c3.2-9.6 0-19.2-3.2-25.6-3.2-9.6-9.6-16-16-19.2-6.4-6.4-16-6.4-25.6-6.4-12.8 0-22.4 6.4-32 12.8-6.4 6.4-9.6 16-9.6 28.8v0zM720 195.2c0-16 3.2-32 12.8-44.8s22.4-22.4 35.2-28.8c12.8-6.4 28.8-6.4 44.8-3.2s28.8 9.6 41.6 22.4c9.6 12.8 19.2 25.6 22.4 41.6s0 32-3.2 48c-6.4 16-16 28.8-28.8 35.2-12.8 9.6-28.8 12.8-44.8 12.8-19.2 0-41.6-9.6-54.4-22.4-16-19.2-25.6-38.4-25.6-60.8zM755.2 195.2c0 9.6 3.2 19.2 6.4 25.6 6.4 6.4 12.8 12.8 19.2 16 9.6 3.2 16 3.2 25.6 3.2 9.6-3.2 16-6.4 22.4-12.8s9.6-16 12.8-22.4c3.2-9.6 0-19.2-3.2-25.6-3.2-9.6-9.6-16-16-19.2-6.4-6.4-16-6.4-25.6-6.4-6.4 0-12.8 0-16 3.2-6.4 3.2-9.6 6.4-12.8 9.6s-6.4 9.6-9.6 16-3.2 6.4-3.2 12.8zM44.8 233.6v185.6l60.8 198.4c3.2 9.6 9.6 16 16 19.2s16 6.4 22.4 6.4h208c6.4 0 9.6 0 16-3.2s9.6-6.4 12.8-9.6c3.2-3.2 6.4-9.6 9.6-12.8 3.2-6.4 3.2-9.6 3.2-16v-268.8h70.4v355.2c0 25.6 9.6 48 25.6 64s38.4 25.6 64 25.6h348.8c22.4 0 44.8-9.6 64-25.6 16-16 25.6-38.4 25.6-64v-390.4h-86.4v-38.4l-6.4-16 6.4-9.6-16-12.8-6.4 6.4c-6.4 19.2-19.2 35.2-35.2 48s-35.2 19.2-54.4 19.2c-19.2 0-38.4-6.4-54.4-19.2s-28.8-28.8-35.2-48v-6.4l-16 12.8 6.4 9.6h-259.2v-19.2h-48c-6.4 19.2-16 38.4-35.2 51.2s-35.2 19.2-57.6 19.2c-19.2 0-41.6-6.4-57.6-19.2s-28.8-32-35.2-51.2h-22.4c-3.2-9.6-6.4-19.2-6.4-32 0-6.4-3.2-16-9.6-22.4s-12.8-9.6-19.2-9.6h-99.2c-3.2 0-6.4 0-9.6 3.2-3.2 6.4-3.2 9.6-3.2 12.8v41.6c0 3.2 0 6.4 3.2 9.6s6.4 6.4 9.6 6.4zM172.8 604.8l-48-163.2c0-3.2 0-6.4 0-6.4 0-3.2 3.2-3.2 3.2-6.4 3.2-3.2 3.2-3.2 6.4-3.2s6.4 0 6.4 0l198.4 60.8c3.2 0 6.4 3.2 6.4 6.4s3.2 6.4 3.2 9.6v102.4c0 3.2 0 6.4-3.2 9.6s-6.4 3.2-9.6 3.2h-150.4c-3.2 0-6.4 0-9.6-3.2 0-3.2-3.2-6.4-3.2-9.6z" />
<glyph unicode="&#xe91c;" glyph-name="scale" d="M486.4 406.4c-9.6-6.4-16-12.8-19.2-22.4s-3.2-19.2 0-28.8c3.2-9.6 9.6-19.2 16-25.6 9.6-6.4 19.2-9.6 28.8-9.6s19.2 3.2 28.8 9.6c9.6 6.4 12.8 16 16 25.6s3.2 19.2 0 28.8c-3.2 9.6-9.6 19.2-19.2 22.4 3.2 44.8 16 179.2-25.6 179.2s-28.8-134.4-25.6-179.2zM832 816c22.4 0 41.6 9.6 57.6 22.4 16 16 22.4 35.2 22.4 57.6h-796.8c0-22.4 9.6-41.6 22.4-57.6 16-16 35.2-22.4 54.4-22.4h278.4v-83.2c-86.4-12.8-166.4-54.4-224-121.6s-92.8-153.6-92.8-243.2v-284.8c0-22.4 9.6-41.6 22.4-57.6 16-16 35.2-25.6 57.6-25.6h556.8c22.4 0 41.6 9.6 57.6 22.4 16 16 22.4 35.2 22.4 57.6v284.8c0 89.6-32 176-92.8 243.2-57.6 67.2-140.8 108.8-227.2 118.4v89.6h281.6zM790.4 364.8c0-57.6-16-112-48-160s-73.6-83.2-124.8-105.6c-51.2-22.4-108.8-28.8-163.2-16-54.4 9.6-105.6 38.4-144 80s-67.2 92.8-76.8 147.2c-9.6 54.4-6.4 115.2 16 166.4s57.6 96 105.6 128c48 32 102.4 48 156.8 48 73.6 0 144-28.8 198.4-83.2 51.2-54.4 80-128 80-204.8v0z" />
<glyph unicode="&#xe91d;" glyph-name="package-variant" d="M534.4 390.4v-422.4l371.2 233.6c9.6 6.4 19.2 16 25.6 25.6s9.6 22.4 9.6 35.2v384l-406.4-256zM678.4 838.4l-128 76.8c-12.8 9.6-25.6 12.8-38.4 12.8s-25.6-3.2-38.4-9.6l-374.4-227.2 166.4-99.2 412.8 246.4zM761.6 790.4l-412.8-249.6 163.2-99.2 412.8 249.6-163.2 99.2zM339.2 371.2l-86.4 44.8v128l-172.8 105.6v-384c0-12.8 3.2-25.6 9.6-35.2s16-19.2 25.6-25.6l371.2-220.8v422.4l-150.4 86.4v-121.6z" />
<glyph unicode="&#xe91e;" glyph-name="factory" d="M934.4 515.2l-44.8 19.2v275.2c0 9.6-3.2 19.2-12.8 25.6-6.4 6.4-16 12.8-28.8 12.8h-124.8c-9.6 0-19.2-3.2-28.8-12.8-6.4-6.4-12.8-16-12.8-25.6v-182.4l-22.4 9.6c0 3.2-6.4 3.2-16 3.2-6.4 0-12.8-3.2-19.2-6.4s-9.6-9.6-12.8-12.8c-3.2-6.4-3.2-12.8-3.2-19.2v-182.4l-214.4 96c-6.4 3.2-12.8 3.2-19.2 3.2s-12.8-3.2-19.2-6.4c-6.4-3.2-9.6-9.6-12.8-12.8-3.2-6.4-6.4-12.8-6.4-19.2v-182.4l-211.2 96c-6.4 3.2-12.8 3.2-19.2 3.2s-12.8-3.2-19.2-6.4c-6.4-3.2-9.6-9.6-12.8-12.8-3.2-6.4-6.4-12.8-6.4-19.2v-310.4h76.8v249.6l192-86.4v-166.4h80v377.6l192-86.4v-284.8h76.8v489.6l192-86.4v-406.4h76.8v432c0 6.4-3.2 12.8-6.4 19.2s-6.4 12.8-12.8 16zM809.6 569.6l-44.8 19.2v182.4h44.8v-201.6z" />
<glyph unicode="&#xe91f;" glyph-name="emoticon" d="M512 860.8c-83.2 0-160-25.6-230.4-70.4-67.2-44.8-121.6-108.8-150.4-185.6-32-76.8-38.4-160-22.4-240s54.4-153.6 112-211.2c57.6-57.6 131.2-96 211.2-112s163.2-6.4 240 22.4c76.8 32 140.8 83.2 185.6 153.6 44.8 67.2 70.4 147.2 70.4 230.4 0 108.8-44.8 214.4-121.6 291.2-80 76.8-185.6 121.6-294.4 121.6zM512 115.2c-67.2 0-131.2 19.2-185.6 57.6-54.4 35.2-99.2 89.6-124.8 150.4s-32 128-19.2 192c12.8 64 44.8 124.8 92.8 172.8s105.6 80 172.8 92.8c64 12.8 131.2 6.4 192-19.2s112-67.2 150.4-124.8c35.2-54.4 57.6-118.4 57.6-185.6 0-89.6-35.2-172.8-99.2-236.8s-147.2-99.2-236.8-99.2zM380.8 467.2c9.6 0 19.2 3.2 28.8 9.6s16 12.8 19.2 22.4c3.2 9.6 6.4 19.2 3.2 28.8s-6.4 19.2-12.8 25.6c-6.4 6.4-16 12.8-25.6 12.8-9.6 3.2-19.2 0-28.8-3.2s-16-9.6-22.4-19.2c-6.4-9.6-9.6-19.2-9.6-28.8 0-12.8 6.4-25.6 16-35.2 6.4-6.4 19.2-12.8 32-12.8zM643.2 467.2c9.6 0 19.2 3.2 28.8 9.6s16 12.8 19.2 22.4c3.2 9.6 6.4 19.2 3.2 28.8s-6.4 19.2-12.8 25.6c-6.4 6.4-16 12.8-25.6 12.8-9.6 3.2-19.2 0-28.8-3.2s-16-9.6-22.4-19.2c-6.4-9.6-9.6-19.2-9.6-28.8 0-12.8 6.4-25.6 16-35.2 3.2-6.4 16-12.8 32-12.8zM675.2 390.4c-6.4 0-12.8 0-19.2-3.2s-9.6-6.4-12.8-12.8c-16-19.2-35.2-38.4-57.6-48-22.4-12.8-48-16-73.6-16s-51.2 6.4-73.6 16c-22.4 12.8-41.6 28.8-57.6 48-3.2 3.2-9.6 9.6-12.8 12.8-6.4 3.2-12.8 3.2-19.2 3.2-9.6 0-16-3.2-25.6-6.4-6.4-6.4-12.8-12.8-16-19.2s-3.2-12.8-3.2-19.2c0-6.4 3.2-12.8 9.6-19.2 22.4-32 51.2-57.6 86.4-73.6s70.4-25.6 108.8-25.6 76.8 9.6 108.8 25.6c35.2 16 64 41.6 86.4 73.6 6.4 6.4 6.4 12.8 9.6 22.4 0 6.4 0 16-3.2 22.4s-9.6 12.8-16 16c-3.2 3.2-12.8 3.2-19.2 3.2v0z" />
<glyph unicode="&#xe920;" glyph-name="line" d="M512 883.2c-240 0-435.2-195.2-435.2-435.2s195.2-435.2 435.2-435.2 435.2 195.2 435.2 435.2c0 240-195.2 435.2-435.2 435.2zM803.2 473.6c0-51.2-19.2-99.2-60.8-144-64-70.4-198.4-156.8-230.4-169.6s-25.6 9.6-25.6 16c0 3.2 3.2 25.6 3.2 25.6 3.2 9.6 0 19.2 0 25.6-3.2 9.6-16 12.8-25.6 16-140.8 19.2-243.2 115.2-243.2 233.6 0 128 131.2 236.8 291.2 236.8s291.2-108.8 291.2-240v0zM454.4 537.6h-19.2c0 0-3.2 0-3.2-3.2 0 0-3.2-3.2-3.2-3.2v-124.8c0 0 0-3.2 3.2-3.2 0 0 3.2-3.2 3.2-3.2h19.2c0 0 3.2 0 3.2 3.2 0 0 3.2 3.2 3.2 3.2v124.8c0 0 0 3.2-3.2 3.2-3.2 3.2-3.2 3.2-3.2 3.2zM592 537.6h-19.2c0 0-3.2 0-3.2-3.2 0 0-3.2-3.2-3.2-3.2v-73.6l-57.6 76.8c0 0 0 0 0 0v0h-22.4c0 0-3.2 0-3.2-3.2 0 0-3.2-3.2-3.2-3.2v-124.8c0 0 0-3.2 3.2-3.2 0 0 3.2-3.2 3.2-3.2h19.2c0 0 3.2 0 3.2 3.2 0 0 3.2 3.2 3.2 3.2v76.8l57.6-76.8c0 0 0 0 0 0v0 0c0 0 0 0 0 0h19.2c0 0 3.2 0 3.2 3.2 0 0 3.2 3.2 3.2 3.2v124.8c0 0 0 3.2-3.2 3.2 6.4 0 3.2 0 0 0zM403.2 432h-54.4v99.2c0 0 0 3.2-3.2 3.2 0 0-3.2 3.2-3.2 3.2h-19.2c0 0-3.2 0-3.2-3.2 0 0-3.2-3.2-3.2-3.2v-124.8c0 0 0-3.2 0-3.2s0 0 3.2 0c0 0 0 0 3.2 0h80c0 0 3.2 0 3.2 3.2 0 0 3.2 3.2 3.2 3.2v19.2c0 0 0 3.2-3.2 3.2 0 0 0 0-3.2 0zM707.2 505.6c0 0 3.2 0 3.2 3.2 0 0 3.2 3.2 3.2 3.2v19.2c0 0 0 3.2-3.2 3.2 0 0-3.2 3.2-3.2 3.2h-80c0 0 0 0-3.2 0 0 0 0 0-3.2 0 0 0 0-3.2 0-3.2v-124.8c0 0 0 0 0-3.2 0 0 0 0 0-3.2 0 0 0 0 3.2 0 0 0 0 0 3.2 0h80c0 0 3.2 0 3.2 3.2 0 0 3.2 3.2 3.2 3.2v19.2c0 0 0 3.2-3.2 3.2 0 0-3.2 0-3.2 0h-54.4v22.4h54.4c0 0 3.2 0 3.2 3.2 0 0 3.2 3.2 3.2 3.2v19.2c0 0 0 3.2-3.2 3.2 0 0-3.2 3.2-3.2 3.2h-54.4v22.4l54.4-3.2z" />
<glyph unicode="&#xe921;" glyph-name="arrow-down-thick" d="M707.2 822.4c-9.6-9.6-19.2-12.8-32-12.8s-22.4 3.2-32 12.8c-9.6 9.6-12.8 19.2-12.8 32s3.2 22.4 12.8 32c9.6 9.6 19.2 12.8 32 12.8s22.4-3.2 32-12.8c9.6-9.6 12.8-19.2 12.8-32-3.2-12.8-6.4-22.4-12.8-32zM844.8 387.2c6.4-3.2 12.8-12.8 16-19.2 3.2-9.6 3.2-16 3.2-25.6-3.2-9.6-6.4-16-12.8-22.4l-310.4-310.4c-3.2-3.2-9.6-6.4-12.8-9.6-6.4 0-9.6 0-16 0s-12.8 0-16 3.2c-6.4 3.2-9.6 6.4-12.8 9.6l-310.4 310.4c-6.4 3.2-12.8 12.8-12.8 19.2-3.2 9.6 0 16 3.2 25.6 3.2 6.4 9.6 16 16 19.2s16 6.4 22.4 6.4h105.6v156.8c0 12.8 3.2 22.4 12.8 32s19.2 12.8 32 12.8 22.4-3.2 32-12.8c9.6-9.6 12.8-19.2 12.8-32v-198.4c0-12.8-3.2-22.4-12.8-32s-19.2-12.8-32-12.8h-44.8l204.8-204.8 204.8 204.8h-41.6c-12.8 0-22.4 3.2-32 12.8s-12.8 19.2-12.8 32v371.2c0 12.8 3.2 22.4 12.8 32s19.2 12.8 32 12.8 22.4-3.2 32-12.8c9.6-9.6 12.8-19.2 12.8-32v-329.6h105.6c6.4 0 12.8 0 19.2-6.4zM512 393.6c12.8 0 22.4 3.2 32 12.8s12.8 19.2 12.8 32v211.2c0 12.8-3.2 22.4-12.8 32s-19.2 12.8-32 12.8c-12.8 0-22.4-3.2-32-12.8s-12.8-19.2-12.8-32v-214.4c0-12.8 3.2-22.4 12.8-32 9.6-6.4 22.4-9.6 32-9.6zM544 736c-9.6-9.6-19.2-12.8-32-12.8s-22.4 3.2-32 12.8c-9.6 9.6-12.8 19.2-12.8 32s3.2 22.4 12.8 32c9.6 9.6 19.2 12.8 32 12.8s22.4-3.2 32-12.8c9.6-9.6 12.8-19.2 12.8-32s-6.4-22.4-12.8-32z" />
<glyph unicode="&#xe922;" glyph-name="pencil" d="M524.8 313.6l28.8-48c41.6-76.8 96-147.2 156.8-208l57.6-57.6c3.2-3.2 6.4-3.2 9.6-3.2s6.4 0 9.6 3.2c3.2 0 6.4 3.2 6.4 6.4s3.2 6.4 3.2 9.6l-25.6 80c-22.4 83.2-54.4 163.2-99.2 236.8l-28.8 48-288 502.4c-3.2 6.4-9.6 9.6-16 12.8s-12.8 0-19.2-3.2l-76.8-44.8c-6.4-3.2-9.6-9.6-12.8-16s0-12.8 3.2-19.2l291.2-499.2z" />
<glyph unicode="&#xe923;" glyph-name="download-csv" d="M553.6 470.4c0 12.8-3.2 22.4-12.8 28.8-6.4 9.6-16 12.8-28.8 12.8s-22.4-3.2-28.8-12.8c-9.6-9.6-12.8-19.2-12.8-28.8v-156.8l-86.4 83.2c-9.6 9.6-19.2 12.8-28.8 12.8-12.8 0-22.4-3.2-28.8-12.8-6.4-3.2-9.6-6.4-12.8-12.8s-3.2-9.6-3.2-16 0-12.8 3.2-16 6.4-9.6 9.6-12.8l160-160c9.6-6.4 19.2-12.8 28.8-12.8 6.4 0 12.8 0 16 3.2 6.4 3.2 9.6 6.4 12.8 9.6l156.8 156.8c3.2 3.2 6.4 9.6 9.6 12.8 3.2 6.4 3.2 9.6 3.2 16s0 12.8-3.2 16c-3.2 6.4-6.4 9.6-9.6 12.8-9.6 9.6-19.2 12.8-28.8 12.8s-22.4-3.2-28.8-12.8l-86.4-86.4v163.2zM899.2 342.4c-12.8 0-22.4-3.2-28.8-12.8-9.6-9.6-12.8-19.2-12.8-28.8v-214.4h-688v214.4c0 12.8-3.2 22.4-12.8 28.8-9.6 9.6-19.2 12.8-28.8 12.8-12.8 0-22.4-3.2-28.8-12.8-9.6-9.6-12.8-19.2-12.8-28.8v-259.2c0-12.8 3.2-22.4 12.8-28.8 3.2-9.6 16-12.8 25.6-12.8h774.4c12.8 0 22.4 3.2 28.8 12.8 9.6 9.6 12.8 19.2 12.8 28.8v259.2c0 12.8-3.2 22.4-12.8 28.8-6.4 9.6-19.2 12.8-28.8 12.8zM281.6 556.8c19.2 0 35.2 3.2 54.4 12.8 16 9.6 32 19.2 41.6 35.2 6.4 6.4 9.6 16 9.6 25.6s-3.2 16-6.4 25.6c-3.2 3.2-6.4 6.4-9.6 9.6s-6.4 3.2-12.8 3.2c-3.2 0-6.4 0-9.6-3.2s-6.4-3.2-6.4-6.4c-6.4-9.6-12.8-19.2-22.4-25.6s-19.2-9.6-32-9.6c-41.6 0-64 48-64 105.6 0 86.4 38.4 108.8 64 108.8 9.6 0 19.2-3.2 28.8-9.6s16-12.8 19.2-22.4c3.2-3.2 3.2-6.4 6.4-6.4 3.2-3.2 6.4-3.2 9.6-3.2s9.6 0 12.8 3.2c3.2 3.2 6.4 3.2 9.6 9.6 6.4 6.4 6.4 12.8 6.4 22.4s-3.2 19.2-9.6 25.6c-9.6 12.8-22.4 25.6-38.4 32-16 3.2-32 6.4-51.2 3.2-92.8 0-128-86.4-128-172.8 0-118.4 70.4-163.2 128-163.2zM518.4 556.8c12.8 0 25.6 0 38.4 3.2s25.6 12.8 35.2 19.2c9.6 9.6 16 19.2 22.4 32s6.4 25.6 6.4 38.4c0 12.8 0 25.6-3.2 35.2-3.2 12.8-9.6 22.4-19.2 32-16 16-38.4 28.8-60.8 35.2-16 6.4-32 12.8-48 22.4-3.2 3.2-6.4 6.4-6.4 9.6-3.2 9.6-3.2 16-3.2 19.2 0 22.4 16 32 38.4 32 9.6 0 16-3.2 25.6-6.4 6.4-3.2 12.8-9.6 19.2-19.2 3.2-3.2 3.2-3.2 6.4-6.4 3.2 0 6.4-3.2 9.6-3.2s9.6 0 12.8 3.2c3.2 3.2 6.4 6.4 9.6 9.6 3.2 9.6 6.4 16 6.4 22.4 0 9.6-3.2 16-6.4 22.4-9.6 12.8-22.4 22.4-35.2 28.8-16 6.4-28.8 9.6-44.8 9.6-12.8 0-25.6 0-38.4-6.4-12.8-3.2-22.4-12.8-32-19.2-9.6-9.6-16-19.2-22.4-32-3.2-12.8-6.4-25.6-6.4-38.4 0-9.6 0-22.4 3.2-32s9.6-19.2 16-28.8c19.2-16 38.4-28.8 60.8-35.2 16-6.4 28.8-12.8 41.6-22.4 3.2-3.2 6.4-6.4 6.4-12.8 3.2-3.2 3.2-9.6 3.2-16 0-25.6-19.2-35.2-41.6-35.2-12.8 0-22.4 3.2-35.2 9.6-9.6 6.4-19.2 16-25.6 25.6-3.2 3.2-6.4 6.4-9.6 6.4-3.2 3.2-6.4 3.2-9.6 3.2s-9.6 0-12.8-3.2c-3.2-3.2-6.4-6.4-9.6-9.6-3.2-6.4-6.4-12.8-6.4-19.2 0-9.6 3.2-19.2 9.6-28.8 9.6-16 25.6-28.8 41.6-35.2 25.6-3.2 44.8-9.6 64-9.6zM720 595.2c3.2-9.6 6.4-19.2 12.8-25.6s16-9.6 25.6-9.6c9.6 0 19.2 3.2 25.6 9.6s12.8 16 12.8 25.6l76.8 252.8c0 3.2 0 6.4 0 9.6 0 6.4-3.2 12.8-6.4 19.2s-9.6 9.6-16 12.8c-3.2 0-6.4 3.2-12.8 3.2s-12.8-3.2-19.2-6.4c-6.4-3.2-9.6-9.6-9.6-16l-54.4-220.8-54.4 220.8c0 6.4-3.2 12.8-9.6 16s-12.8 6.4-19.2 6.4c-3.2 0-6.4 0-12.8-3.2s-12.8-6.4-16-12.8c0-6.4-3.2-12.8-3.2-19.2 0-3.2 0-6.4 0-9.6l80-252.8z" />
<glyph unicode="&#xe924;" glyph-name="download-pdf" d="M323.2 400c-3.2-3.2-6.4-9.6-9.6-12.8-3.2-6.4-3.2-9.6-3.2-16s0-12.8 3.2-16c3.2-6.4 6.4-9.6 9.6-12.8l156.8-160c3.2-3.2 9.6-6.4 12.8-9.6 6.4-3.2 9.6-3.2 16-3.2 12.8 0 22.4 3.2 32 12.8l160 160c3.2 3.2 6.4 9.6 9.6 12.8 3.2 6.4 3.2 9.6 3.2 16s0 12.8-3.2 16c-3.2 6.4-6.4 9.6-9.6 12.8s-9.6 6.4-12.8 9.6c-6.4 3.2-9.6 3.2-16 3.2s-12.8 0-16-3.2c-6.4-3.2-9.6-6.4-12.8-9.6l-86.4-86.4v160c0 12.8-3.2 22.4-12.8 32s-19.2 12.8-32 12.8c-12.8 0-22.4-3.2-32-12.8s-12.8-19.2-12.8-32v-160l-86.4 86.4c-6.4 6.4-19.2 9.6-28.8 9.6-9.6 3.2-22.4-3.2-28.8-9.6zM902.4 345.6c-12.8 0-22.4-3.2-32-12.8s-12.8-19.2-12.8-32v-217.6h-691.2v217.6c0 12.8-3.2 22.4-12.8 32s-19.2 12.8-32 12.8c-12.8 0-22.4-3.2-32-12.8s-12.8-19.2-12.8-32v-259.2c0-12.8 3.2-22.4 12.8-32s19.2-12.8 32-12.8h780.8c12.8 0 22.4 3.2 32 12.8s12.8 19.2 12.8 32v259.2c0 12.8-3.2 22.4-12.8 32s-19.2 12.8-32 12.8zM185.6 563.2c3.2 0 6.4 0 12.8 3.2 3.2 0 6.4 3.2 9.6 6.4s6.4 6.4 6.4 9.6c0 3.2 3.2 6.4 3.2 12.8v89.6h35.2c28.8-3.2 54.4 6.4 76.8 22.4 12.8 9.6 22.4 25.6 28.8 38.4 6.4 16 9.6 32 6.4 48 0 16-3.2 28.8-9.6 44.8-6.4 12.8-16 25.6-28.8 35.2-19.2 12.8-44.8 22.4-70.4 19.2h-54.4c-28.8 0-41.6-19.2-41.6-54.4v-246.4c0-6.4 3.2-12.8 9.6-19.2 3.2-6.4 9.6-9.6 16-9.6zM214.4 825.6c0 6.4 3.2 9.6 9.6 9.6h28.8c35.2 0 48-19.2 48-44.8 0-35.2-19.2-48-51.2-48h-35.2v83.2zM454.4 569.6h54.4c32-3.2 60.8 9.6 86.4 28.8 19.2 16 32 38.4 41.6 60.8s12.8 48 12.8 73.6c3.2 25.6-3.2 48-9.6 73.6-9.6 22.4-22.4 44.8-41.6 60.8-25.6 19.2-54.4 28.8-86.4 28.8h-54.4c-28.8 0-44.8-19.2-44.8-57.6v-211.2c-6.4-38.4 9.6-57.6 41.6-57.6zM467.2 822.4c0 6.4 3.2 9.6 9.6 9.6h22.4c19.2 3.2 38.4-3.2 54.4-16 9.6-9.6 19.2-25.6 22.4-38.4 6.4-16 6.4-28.8 6.4-44.8s0-32-6.4-48c-6.4-16-16-28.8-25.6-38.4-16-12.8-35.2-16-54.4-16h-22.4c-6.4 0-9.6 3.2-9.6 9.6l3.2 182.4zM720 563.2c3.2 0 6.4 0 9.6 3.2 3.2 0 6.4 3.2 9.6 6.4s6.4 6.4 6.4 9.6c0 3.2 3.2 6.4 3.2 9.6v108.8h96c12.8 0 19.2 19.2 19.2 28.8 0 12.8-6.4 28.8-19.2 28.8h-96v67.2c0 6.4 0 6.4 6.4 6.4h108.8c16 0 22.4 19.2 22.4 32s-9.6 32-22.4 32h-131.2c-25.6 0-38.4-16-38.4-51.2v-252.8c0-3.2 0-6.4 3.2-9.6 0-3.2 3.2-6.4 6.4-9.6s6.4-6.4 9.6-6.4c0 0 3.2-3.2 6.4-3.2z" />
<glyph unicode="&#xe925;" glyph-name="home-outline" d="M480 307.2h-96v-99.2h96v99.2zM480 473.6h-96v-99.2h96v99.2zM640 307.2h-96v-99.2h96v99.2zM931.2 512l-345.6 352c-19.2 19.2-44.8 32-73.6 32s-54.4-9.6-73.6-32l-345.6-352c-28.8-32-35.2-76.8-22.4-115.2 16-38.4 51.2-64 92.8-64v-227.2c0-57.6 44.8-105.6 102.4-105.6h492.8c57.6 0 102.4 48 102.4 105.6v227.2c41.6 0 76.8 25.6 92.8 64 12.8 38.4 6.4 83.2-22.4 115.2v0zM857.6 396.8h-60.8v-294.4c0-22.4-16-38.4-38.4-38.4h-492.8c-22.4 0-38.4 16-38.4 38.4v294.4h-60.8c-35.2 0-51.2 41.6-25.6 67.2l345.6 355.2c6.4 6.4 16 12.8 25.6 12.8s19.2-3.2 25.6-12.8l345.6-355.2c25.6-25.6 9.6-67.2-25.6-67.2zM640 473.6h-96v-99.2h96v99.2z" />
<glyph unicode="&#xe926;" glyph-name="category-13" d="M627.2 480v313.6c0 6.4-3.2 16-9.6 19.2-6.4 6.4-12.8 9.6-19.2 9.6h-6.4l16 51.2c0 3.2 3.2 9.6 0 12.8 0 3.2-3.2 9.6-6.4 12.8s-6.4 6.4-9.6 9.6c-3.2 3.2-9.6 3.2-12.8 3.2h-137.6c-3.2 0-9.6 0-12.8-3.2s-6.4-6.4-9.6-9.6c0-3.2-3.2-9.6-3.2-12.8s0-9.6 0-12.8l16-51.2h-9.6c-6.4 0-16-3.2-19.2-9.6-6.4-6.4-9.6-12.8-9.6-19.2v-313.6c-44.8-22.4-83.2-57.6-112-99.2-25.6-44.8-41.6-92.8-41.6-144v-220.8c0-6.4 3.2-16 9.6-19.2 6.4-6.4 12.8-9.6 19.2-9.6h480c6.4 0 16 3.2 19.2 9.6 6.4 6.4 9.6 12.8 9.6 19.2v220.8c0 51.2-16 102.4-41.6 144s-64 76.8-108.8 99.2zM480 851.2h57.6l-9.6-28.8h-38.4l-9.6 28.8zM435.2 435.2c6.4 3.2 9.6 6.4 12.8 9.6s6.4 9.6 6.4 16v304h118.4v-304c0-6.4 3.2-12.8 6.4-16s6.4-9.6 12.8-9.6c32-12.8 60.8-32 83.2-60.8 22.4-25.6 38.4-57.6 44.8-92.8h-76.8c-9.6 25.6-28.8 48-51.2 64s-51.2 25.6-80 25.6c-28.8 0-54.4-9.6-80-25.6-22.4-16-41.6-38.4-51.2-64h-76.8c6.4 35.2 22.4 64 44.8 92.8 25.6 25.6 54.4 48 86.4 60.8v0zM592 230.4c0-16-6.4-32-12.8-48-9.6-12.8-22.4-25.6-38.4-32s-32-9.6-48-6.4c-16 3.2-32 12.8-44.8 22.4-12.8 12.8-19.2 28.8-22.4 44.8s0 35.2 6.4 48c6.4 16 16 28.8 32 38.4 12.8 9.6 28.8 16 48 16 22.4 0 44.8-9.6 57.6-25.6 12.8-12.8 19.2-35.2 22.4-57.6v0zM300.8 41.6v121.6h83.2c12.8-22.4 28.8-41.6 51.2-54.4s48-19.2 70.4-19.2 51.2 6.4 70.4 19.2c22.4 12.8 38.4 32 51.2 54.4h92.8v-121.6h-419.2z" />
<glyph unicode="&#xe927;" glyph-name="category-14" d="M332.8 377.6c6.4 0 16 3.2 16 9.6v41.6h48c6.4 0 9.6 6.4 9.6 12.8s-3.2 12.8-9.6 12.8h-48v25.6c0 3.2 0 3.2 3.2 3.2h54.4c6.4 0 9.6 6.4 9.6 12.8 0 3.2-3.2 12.8-9.6 12.8h-67.2c-3.2 0-6.4 0-9.6 0s-6.4-3.2-6.4-3.2-3.2-3.2-3.2-6.4 0-6.4 0-6.4v-96c-3.2-16 6.4-19.2 12.8-19.2zM412.8 403.2c-3.2 6.4-3.2 12.8-3.2 16v0c0 6.4 0 12.8 3.2 19.2s6.4 9.6 9.6 16c3.2 3.2 9.6 6.4 16 9.6s12.8 3.2 19.2 3.2c6.4 0 12.8 0 19.2-3.2s9.6-6.4 16-9.6c3.2-3.2 6.4-9.6 9.6-16s3.2-12.8 3.2-16v-3.2c0-6.4 0-12.8-3.2-19.2s-6.4-9.6-9.6-16c-3.2-3.2-9.6-6.4-16-9.6s-12.8-3.2-19.2-3.2c-6.4 0-12.8 0-19.2 3.2s-9.6 6.4-16 9.6-6.4 16-9.6 19.2zM460.8 448c-9.6 0-19.2-6.4-19.2-25.6v0c0-16 6.4-25.6 19.2-25.6 9.6 0 19.2 6.4 19.2 25.6v0c0 19.2-6.4 25.6-19.2 25.6zM553.6 377.6c6.4 0 12.8 0 19.2 3.2s12.8 6.4 16 9.6c3.2 3.2 9.6 9.6 9.6 16 3.2 6.4 3.2 12.8 3.2 19.2v3.2c0 6.4 0 12.8-3.2 16-3.2 6.4-6.4 9.6-9.6 16-3.2 3.2-9.6 6.4-16 9.6s-12.8 3.2-19.2 3.2c-6.4 0-12.8 0-19.2-3.2s-12.8-6.4-16-9.6c-3.2-3.2-9.6-9.6-9.6-16-3.2-6.4-3.2-12.8-3.2-19.2v-3.2c0-6.4 0-12.8 3.2-16 3.2-6.4 6.4-9.6 9.6-16 3.2-3.2 9.6-6.4 16-9.6s12.8-3.2 19.2-3.2zM537.6 425.6c0 16 9.6 25.6 19.2 25.6s19.2-6.4 19.2-22.4v0c0-19.2-9.6-25.6-19.2-25.6s-19.2 3.2-19.2 22.4v0zM662.4 384c-6.4-3.2-12.8-6.4-19.2-6.4-19.2 0-35.2 16-35.2 44.8 0 6.4 0 12.8 3.2 19.2s6.4 12.8 9.6 16c3.2 3.2 9.6 9.6 16 9.6 6.4 3.2 12.8 3.2 19.2 3.2s9.6 0 16-3.2v28.8c0 3.2 3.2 6.4 6.4 6.4 3.2 3.2 6.4 3.2 9.6 3.2s6.4 0 9.6-3.2c3.2-3.2 3.2-3.2 6.4-6.4v-89.6c0-6.4 0-12.8 3.2-19.2 0 0 0 0 0-3.2s-3.2-9.6-9.6-9.6h-3.2c-3.2 0-6.4 0-6.4 3.2-3.2 0-3.2 3.2-3.2 6.4s-3.2 9.6-3.2 12.8c-9.6-6.4-12.8-9.6-19.2-12.8zM672 444.8c-3.2 3.2-9.6 3.2-12.8 3.2-12.8 0-22.4-12.8-22.4-28.8s6.4-22.4 12.8-22.4c9.6 0 16 6.4 22.4 19.2 3.2 6.4 3.2 12.8 3.2 19.2v3.2c0 3.2-3.2 3.2-3.2 6.4 0 0 0 0 0 0zM822.4 860.8c-6.4 3.2-9.6 3.2-16 3.2s-9.6 0-16-3.2l-44.8-22.4-44.8 22.4c-3.2 0-9.6 3.2-12.8 3.2s-9.6 0-12.8-3.2l-44.8-22.4-44.8 22.4c-6.4 0-9.6 3.2-16 3.2-3.2 0-9.6 0-12.8-3.2l-44.8-22.4-44.8 22.4c-6.4 0-9.6 3.2-16 3.2-3.2 0-9.6 0-12.8-3.2l-44.8-22.4-44.8 22.4c-3.2 3.2-9.6 3.2-12.8 3.2s-9.6 0-12.8-3.2l-48-22.4-44.8 22.4c-6.4 3.2-16 3.2-22.4 0s-12.8-6.4-16-12.8c-3.2-6.4-3.2-12.8-3.2-19.2 0-3.2 0-3.2 0-6.4v-761.6c0-3.2 0-9.6 3.2-12.8s6.4-6.4 9.6-9.6 9.6-6.4 16-6.4c6.4 0 9.6 0 16 3.2l44.8 22.4 44.8-22.4c3.2-3.2 9.6-3.2 12.8-3.2s9.6 0 12.8 3.2l44.8 22.4 44.8-22.4c6.4-3.2 9.6-3.2 16-3.2 3.2 0 9.6 0 12.8 3.2l44.8 22.4 44.8-22.4c3.2-3.2 9.6-3.2 12.8-3.2s9.6 0 12.8 3.2l44.8 22.4 44.8-22.4c3.2-3.2 9.6-3.2 12.8-3.2s9.6 0 12.8 3.2l44.8 22.4 44.8-22.4c3.2-3.2 9.6-3.2 16-3.2s9.6 0 12.8 3.2c3.2 3.2 6.4 6.4 9.6 9.6s3.2 9.6 3.2 12.8v777.6c0 6.4 0 9.6-3.2 12.8 3.2 6.4 0 9.6-3.2 12.8zM262.4 784c3.2-3.2 9.6-3.2 12.8-3.2s9.6 0 12.8 3.2l44.8 22.4 44.8-22.4c3.2-3.2 9.6-3.2 12.8-3.2s9.6 0 12.8 3.2l44.8 22.4 44.8-22.4c3.2-3.2 9.6-3.2 12.8-3.2s9.6 0 12.8 3.2l44.8 22.4 44.8-22.4c3.2-3.2 9.6-3.2 12.8-3.2s9.6 0 12.8 3.2l44.8 22.4 44.8-22.4c3.2-3.2 9.6-3.2 12.8-3.2s9.6 0 12.8 3.2l16 6.4v-38.4h-518.4v38.4l16-6.4zM774.4 198.4h-528v499.2h528v-499.2zM758.4 112c-3.2 3.2-9.6 3.2-12.8 3.2s-9.6 0-12.8-3.2l-44.8-22.4-44.8 22.4c-3.2 3.2-9.6 3.2-12.8 3.2s-9.6 0-12.8-3.2l-44.8-22.4-44.8 22.4c-3.2 3.2-9.6 3.2-12.8 3.2s-9.6 0-12.8-3.2l-44.8-22.4-44.8 22.4c-3.2 3.2-9.6 3.2-12.8 3.2s-9.6 0-12.8-3.2l-44.8-22.4-44.8 22.4c-3.2 3.2-9.6 3.2-12.8 3.2s-9.6 0-12.8-3.2l-16-6.4v38.4h528v-38.4l-25.6 6.4z" />
<glyph unicode="&#xe928;" glyph-name="category-15" d="M169.6 51.2c-25.6 12.8-38.4 38.4-38.4 67.2v659.2c0 41.6 35.2 76.8 80 76.8h601.6c44.8 0 80-35.2 80-76.8v-659.2c0-28.8-16-51.2-38.4-67.2-25.6-12.8-54.4-16-80-3.2l-262.4 137.6-262.4-137.6c-25.6-9.6-54.4-9.6-80 3.2zM512 275.2l300.8-156.8v659.2h-601.6v-659.2l300.8 156.8zM457.6 585.6l54.4 115.2 54.4-115.2 124.8-19.2-89.6-89.6 22.4-124.8-112 57.6-112-57.6 22.4 124.8-89.6 89.6 124.8 19.2z" />
<glyph unicode="&#xe929;" glyph-name="category-16" d="M153.6 156.8c0 3.2 3.2 6.4 6.4 9.6s3.2 3.2 6.4 3.2 6.4 0 6.4 0 6.4 0 6.4 0 3.2-3.2 6.4-3.2 6.4-6.4 6.4-9.6c0-3.2 0-6.4 0-9.6s-3.2-6.4-6.4-9.6c-3.2-3.2-6.4-3.2-9.6-3.2s-6.4 0-9.6 3.2c-3.2 3.2-6.4 6.4-6.4 9.6-6.4 3.2-6.4 6.4-6.4 9.6zM857.6 838.4c6.4 0 12.8-3.2 16-6.4 0 0 0 0 0 0 6.4-6.4 99.2-80 73.6-185.6-6.4-28.8-25.6-54.4-51.2-70.4-6.4-28.8-22.4-57.6-44.8-76.8-6.4-9.6-16-16-28.8-19.2-9.6-6.4-22.4-9.6-35.2-9.6h-3.2c-9.6-16-22.4-35.2-35.2-48-28.8-25.6-60.8-44.8-96-60.8-28.8-9.6-57.6-12.8-89.6-9.6-22.4 0-44.8 0-67.2-6.4-22.4-9.6-41.6-19.2-60.8-35.2 6.4-6.4 9.6-12.8 9.6-19.2s-3.2-16-9.6-19.2l-195.2-188.8c-9.6-9.6-19.2-16-32-19.2s-25.6-6.4-38.4-6.4c-12.8 0-25.6 3.2-38.4 6.4s-22.4 12.8-32 19.2c-9.6 9.6-16 19.2-22.4 32s-6.4 22.4-6.4 35.2c0 12.8 3.2 25.6 6.4 35.2 6.4 12.8 12.8 22.4 22.4 32l195.2 188.8c9.6 6.4 16 9.6 25.6 9.6 3.2 0 9.6 0 12.8-3.2 3.2 0 6.4-3.2 9.6-6.4l3.2-3.2c12.8 19.2 25.6 38.4 35.2 60.8 6.4 22.4 9.6 41.6 6.4 64-3.2 28.8 3.2 57.6 9.6 86.4 16 32 35.2 64 60.8 92.8 19.2 19.2 41.6 32 67.2 41.6 3.2 19.2 16 38.4 32 54.4 22.4 16 51.2 28.8 83.2 35.2s64 0 92.8-12.8c16 0 32 0 48-6.4s32-12.8 41.6-25.6c0 3.2 0 9.6 0 12.8 0 6.4 0 12.8 3.2 16 3.2 6.4 6.4 9.6 12.8 12.8s12.8 6.4 19.2 3.2zM185.6 118.4c3.2 3.2 9.6 3.2 12.8 6.4l172.8 166.4-51.2 51.2-172.8-166.4c-6.4-6.4-9.6-16-9.6-25.6s3.2-19.2 9.6-25.6c3.2-3.2 6.4-6.4 12.8-6.4 3.2-3.2 9.6-3.2 12.8-3.2s9.6 0 12.8 3.2zM502.4 659.2c-19.2-22.4-35.2-44.8-48-70.4-3.2-9.6-6.4-19.2-6.4-32l9.6 16c16 25.6 35.2 48 57.6 70.4 12.8 9.6 25.6 22.4 41.6 28.8-3.2 3.2-6.4 6.4-9.6 12.8-19.2-6.4-32-12.8-44.8-25.6zM470.4 483.2l-16-19.2 166.4 160c-6.4 3.2-12.8 9.6-16 12.8-16-9.6-32-19.2-48-32-16-16-32-35.2-44.8-57.6s-25.6-44.8-41.6-64zM499.2 419.2l22.4 12.8c22.4 16 41.6 28.8 64 41.6s41.6 28.8 57.6 44.8c12.8 12.8 25.6 28.8 35.2 48-3.2 3.2-6.4 6.4-9.6 12.8 0 0-3.2 3.2-3.2 3.2l-166.4-163.2zM598.4 412.8c12.8 0 22.4 3.2 32 6.4v0c25.6 12.8 51.2 28.8 70.4 44.8 9.6 9.6 19.2 22.4 25.6 35.2-3.2 3.2-6.4 9.6-9.6 12.8-9.6-12.8-19.2-25.6-32-35.2-22.4-19.2-48-38.4-73.6-54.4 0-3.2-6.4-6.4-12.8-9.6zM873.6 640c6.4 6.4 9.6 16 9.6 22.4v0c3.2 12.8 3.2 28.8 0 41.6s-9.6 28.8-16 38.4c-3.2-9.6-9.6-19.2-16-28.8-3.2-6.4-6.4-9.6-12.8-12.8s-12.8-3.2-16-3.2c-6.4 0-12.8 3.2-16 6.4s-6.4 9.6-9.6 16c-3.2 9.6-6.4 19.2-16 25.6-6.4 6.4-16 12.8-25.6 12.8-9.6 3.2-19.2 3.2-28.8 3.2-6.4 0-12.8 0-19.2 3.2-16 9.6-32 12.8-51.2 12.8-12.8 0-22.4-3.2-32-6.4s-16-9.6-25.6-16c-12.8-12.8-12.8-19.2-12.8-19.2 0-9.6 28.8-28.8 48-44.8 22.4-16 41.6-32 60.8-51.2 22.4-22.4 41.6-44.8 57.6-67.2 12.8-16 28.8-41.6 35.2-41.6 0 0 6.4 0 19.2 12.8 16 16 28.8 35.2 32 57.6 0 6.4 3.2 9.6 6.4 16 3.2 3.2 6.4 6.4 12.8 9.6 6.4 0 12.8 6.4 16 12.8z" />
<glyph unicode="&#xe92a;" glyph-name="maru" d="M512 169.6c-153.6 0-278.4 124.8-278.4 278.4s124.8 278.4 278.4 278.4c153.6 0 278.4-124.8 278.4-278.4s-124.8-278.4-278.4-278.4zM512 32c230.4 0 416 185.6 416 416s-185.6 416-416 416c-230.4 0-416-185.6-416-416s185.6-416 416-416z" />
<glyph unicode="&#xe92b;" glyph-name="batu" d="M208 864l-112-112 304-304-304-304 112-112 300.8 300.8 304-304 112 112-300.8 307.2 304 304-112 112-304-304-304 304z" />
<glyph unicode="&#xe92c;" glyph-name="x" d="M585.6 508.8l291.2 339.2h-70.4l-252.8-294.4-201.6 294.4h-230.4l307.2-444.8-307.2-355.2h70.4l268.8 310.4 214.4-310.4h233.6l-323.2 460.8zM492.8 400l-32 44.8-246.4 352h105.6l198.4-284.8 32-44.8 259.2-371.2h-105.6l-211.2 304z" />
<glyph unicode="&#xe92d;" glyph-name="wrapping" d="M793.6 598.4l80 246.4v12.8c0 0 0 3.2 0 3.2v16c0 0-3.2 0-6.4 6.4h-22.4c-51.2 0-76.8-22.4-99.2-38.4-19.2-16-32-25.6-64-25.6s-44.8 9.6-64 25.6c-22.4 19.2-51.2 38.4-102.4 38.4s-80-22.4-102.4-38.4c-19.2-16-32-25.6-64-25.6s-44.8 9.6-64 25.6c-22.4 16-48 38.4-99.2 38.4h-19.2v-6.4l-6.4-6.4v-25.6l80-246.4c-41.6-54.4-179.2-252.8-179.2-556.8v-3.2c0-16 12.8-28.8 28.8-25.6l864-3.2c19.2 0 32 12.8 32 32 0 304-192 556.8-192 556.8zM230.4 806.4c0 0 9.6-6.4 12.8-9.6 22.4-19.2 51.2-38.4 102.4-38.4s80 22.4 102.4 38.4c19.2 16 32 25.6 64 25.6s44.8-9.6 64-25.6c22.4-19.2 51.2-38.4 102.4-38.4s80 22.4 102.4 38.4c6.4 0 9.6 6.4 12.8 9.6l-41.6-131.2c-9.6 9.6-22.4 16-32 19.2-70.4 19.2-166.4-67.2-208-105.6-41.6 41.6-140.8 128-208 105.6-9.6 0-19.2-9.6-32-19.2l-41.6 131.2zM713.6 614.4v-12.8h-3.2c-16-19.2-67.2-25.6-118.4-25.6 41.6 32 83.2 57.6 105.6 57.6 3.2 0 3.2 0 6.4 0 0 0 0 0 0 0 6.4 0 9.6-12.8 9.6-19.2zM432 576v0c-54.4 0-105.6 9.6-121.6 25.6 0 0-3.2 6.4 0 12.8 0 6.4 3.2 16 9.6 19.2h6.4c22.4 0 64-25.6 105.6-57.6zM115.2 73.6c9.6 249.6 118.4 422.4 160 476.8 32-25.6 83.2-35.2 128-38.4-48-35.2-105.6-76.8-147.2-99.2-16-9.6-19.2-28.8-12.8-44.8 6.4-9.6 16-16 28.8-16s9.6 0 16 3.2c73.6 41.6 192 134.4 224 160 32-25.6 147.2-115.2 224-160 6.4 0 9.6-3.2 16-3.2 9.6 0 22.4 6.4 28.8 16 9.6 16 3.2 35.2-12.8 44.8-41.6 22.4-99.2 67.2-147.2 99.2 48 0 99.2 12.8 131.2 38.4 41.6-57.6 150.4-227.2 160-476.8h-796.8z" />
<glyph unicode="&#xe92e;" glyph-name="food" d="M572.8 832h-108.8c-3.2 0-9.6 0-12.8 0-198.4 0-352-102.4-352-230.4s22.4-96 64-134.4v-297.6c0-57.6 48-105.6 105.6-105.6h121.6s0 0 0 0h361.6c57.6 0 105.6 48 105.6 105.6v297.6c41.6 38.4 64 86.4 64 134.4 0 128-153.6 230.4-352 230.4zM684.8 505.6l-12.8-9.6v-326.4c0-22.4-19.2-41.6-41.6-41.6h-361.6c-22.4 0-41.6 19.2-41.6 41.6v326.4l-12.8 9.6c-25.6 19.2-54.4 51.2-54.4 96 0 89.6 131.2 166.4 288 166.4s288-76.8 288-166.4-28.8-73.6-54.4-96z" />
<glyph unicode="&#xe92f;" glyph-name="tool" d="M1008 659.2s0 0 0 3.2c0 0 0 0 0 3.2 0 0 0 0 0 3.2 0 0 0 0 0 3.2 0 0 0 0 0 3.2 0 0 0 0 0 0s-3.2 3.2-6.4 6.4l-259.2 185.6s0 0-3.2 0c0 0 0 0 0 0-3.2 0-6.4 0-9.6 0 0 0 0 0 0 0s0 0 0 0-6.4 0-9.6 0c0 0 0 0 0 0s0 0 0 0l-688-336s0 0 0 0c0 0 0 0 0 0s0 0 0 0 0 0-3.2-3.2c0 0 0 0 0 0s0 0 0-3.2c0 0 0 0 0 0s0 0 0-3.2c0 0 0 0 0-3.2 0 0 0 0 0 0s0 0 0-3.2c0 0 0 0 0 0l41.6-294.4c0-9.6 6.4-16 12.8-19.2l217.6-156.8s0 0 0 0c0 0 0 0 0 0s0 0 3.2 0c0 0 0 0 0 0s6.4 0 9.6 0c3.2 0 9.6 0 12.8 3.2v0s0 0 0 0c0 0 0 0 0 0l636.8 320c9.6 3.2 16 12.8 16 22.4l32 291.2s0 0 0 0c0 0 0 0 0 0zM748.8 579.2v208l169.6-121.6-169.6-86.4zM688 547.2l-377.6-192-201.6 144 579.2 297.6v-246.4zM86.4 438.4l188.8-134.4v-195.2l-160 115.2-28.8 211.2zM940.8 608l-25.6-217.6-579.2-291.2v201.6l601.6 307.2z" />
</font>
</defs>
</svg>
